<?xml version="1.0" standalone="no"?>
<!DOCTYPE svg PUBLIC "-//W3C//DTD SVG 1.1//EN" "http://www.w3.org/Graphics/SVG/1.1/DTD/svg11.dtd" >
<svg xmlns="http://www.w3.org/2000/svg">
<metadata>
<json>
{
	"fontFamily": "typicons",
	"designer": "Tekanewa Scripts",
	"majorVersion": 1,
	"minorVersion": 0,
	"version": "Version 1.0",
	"fontId": "typicons",
	"psName": "typicons",
	"subFamily": "Regular",
	"fullName": "typicons",
	"description": "Generated by IcoMoon"
}
</json>
</metadata>
<defs>
<font id="typicons" horiz-adv-x="1024">
<font-face units-per-em="1024" ascent="960" descent="-64" />
<missing-glyph horiz-adv-x="1024" />
<glyph unicode="&#x20;" d="" horiz-adv-x="512" />
<glyph unicode="&#xe600;" d="M742.997 657.664c-33.28 33.323-87.381 33.323-120.661 0l-110.336-110.336-110.336 110.336c-33.28 33.323-87.381 33.323-120.661 0-33.323-33.323-33.323-87.339 0-120.661l110.293-110.336-110.293-110.336c-33.323-33.323-33.323-87.339 0-120.661 16.64-16.683 38.485-25.003 60.331-25.003s43.691 8.32 60.331 25.003l110.336 110.336 110.336-110.336c16.64-16.683 38.485-25.003 60.331-25.003s43.691 8.32 60.331 25.003c33.323 33.323 33.323 87.339 0 120.661l-110.293 110.336 110.293 110.336c33.323 33.323 33.323 87.339 0 120.661z" />
<glyph unicode="&#xe601;" d="M724.139 671.958c-41.259 22.955-93.227 8.021-116.053-33.152l-158.421-285.099-90.667 90.667c-33.323 33.323-87.339 33.323-120.661 0s-33.323-87.339 0-120.661l170.667-170.667c16.128-16.171 37.888-25.045 60.331-25.045 3.925 0 7.893 0.256 11.819 0.853 26.496 3.712 49.749 19.627 62.763 43.051l213.333 384c22.912 41.216 8.064 93.141-33.109 116.053z" />
<glyph unicode="&#xe602;" d="M768 512h-170.667v170.667c0 47.104-38.229 85.333-85.333 85.333s-85.333-38.229-85.333-85.333l3.029-170.667h-173.696c-47.104 0-85.333-38.229-85.333-85.333s38.229-85.333 85.333-85.333l173.696 3.029-3.029-173.696c0-47.104 38.229-85.333 85.333-85.333s85.333 38.229 85.333 85.333v173.696l170.667-3.029c47.104 0 85.333 38.229 85.333 85.333s-38.229 85.333-85.333 85.333z" />
<glyph unicode="&#xe603;" d="M768 469.334h-512c-47.104 0-85.333-38.229-85.333-85.333s38.229-85.333 85.333-85.333h512c47.104 0 85.333 38.229 85.333 85.333s-38.229 85.333-85.333 85.333z" />
<glyph unicode="&#xe604;" d="M768 640h-512c-47.104 0-85.333-38.229-85.333-85.333s38.229-85.333 85.333-85.333h512c47.104 0 85.333 38.229 85.333 85.333s-38.229 85.333-85.333 85.333zM768 341.334h-512c-47.104 0-85.333-38.229-85.333-85.333s38.229-85.333 85.333-85.333h512c47.104 0 85.333 38.229 85.333 85.333s-38.229 85.333-85.333 85.333z" />
<glyph unicode="&#xe605;" d="M608 682.667c0-53.019-42.981-96-96-96s-96 42.981-96 96c0 53.019 42.981 96 96 96 53.019 0 96-42.981 96-96zM608 170.667c0-53.019-42.981-96-96-96s-96 42.981-96 96c0 53.019 42.981 96 96 96 53.019 0 96-42.981 96-96zM768 512h-512c-47.104 0-85.333-38.229-85.333-85.333s38.229-85.333 85.333-85.333h512c47.104 0 85.333 38.229 85.333 85.333s-38.229 85.333-85.333 85.333z" />
<glyph unicode="&#xe606;" d="M366.336 700.331c-33.323-33.323-33.323-87.339 0-120.661l152.96-153.003-152.96-153.003c-33.323-33.323-33.323-87.339 0-120.661 16.64-16.683 38.485-25.003 60.331-25.003s43.691 8.32 60.331 25.003l273.707 273.664-273.707 273.664c-33.28 33.323-87.381 33.323-120.661 0z" />
<glyph unicode="&#xe607;" d="M614.997 700.331c-33.28 33.323-87.381 33.323-120.661 0l-273.707-273.664 273.707-273.664c16.64-16.683 38.485-25.003 60.331-25.003s43.691 8.32 60.331 25.003c33.323 33.323 33.323 87.339 0 120.661l-152.96 153.003 152.96 153.003c33.323 33.323 33.323 87.339 0 120.661z" />
<glyph unicode="&#xe608;" d="M451.669 657.664c-33.323-33.237-33.323-87.339 0-120.661l67.669-67.669h-309.077c-47.104 0-85.333-38.187-85.333-85.333 0-47.104 38.229-85.333 85.333-85.333h309.077l-67.669-67.669c-33.323-33.237-33.323-87.339 0-120.661 16.683-16.683 38.485-25.003 60.331-25.003s43.648 8.32 60.331 25.003l273.664 273.664-273.664 273.664c-33.323 33.323-87.339 33.323-120.661 0z" />
<glyph unicode="&#xe609;" d="M768 469.334h-309.077l67.669 67.669c33.323 33.323 33.323 87.424 0 120.661-33.323 33.323-87.339 33.323-120.661 0l-273.664-273.664 273.664-273.664c16.64-16.683 38.485-25.003 60.331-25.003s43.648 8.32 60.331 25.003c33.323 33.323 33.323 87.424 0 120.661l-67.669 67.669h309.077c47.104 0 85.333 38.229 85.333 85.333 0 47.147-38.229 85.333-85.333 85.333z" />
<glyph unicode="&#xe60a;" d="M320 128c0-58.91-47.756-106.667-106.667-106.667s-106.667 47.756-106.667 106.667c0 58.91 47.756 106.667 106.667 106.667 58.91 0 106.667-47.756 106.667-106.667zM320 426.667c0-58.91-47.756-106.667-106.667-106.667s-106.667 47.756-106.667 106.667c0 58.91 47.756 106.667 106.667 106.667 58.91 0 106.667-47.756 106.667-106.667zM320 725.334c0-58.91-47.756-106.667-106.667-106.667s-106.667 47.756-106.667 106.667c0 58.91 47.756 106.667 106.667 106.667 58.91 0 106.667-47.756 106.667-106.667zM618.667 128c0-58.91-47.756-106.667-106.667-106.667s-106.667 47.756-106.667 106.667c0 58.91 47.756 106.667 106.667 106.667 58.91 0 106.667-47.756 106.667-106.667zM618.667 426.667c0-58.91-47.756-106.667-106.667-106.667s-106.667 47.756-106.667 106.667c0 58.91 47.756 106.667 106.667 106.667 58.91 0 106.667-47.756 106.667-106.667zM618.667 725.334c0-58.91-47.756-106.667-106.667-106.667s-106.667 47.756-106.667 106.667c0 58.91 47.756 106.667 106.667 106.667 58.91 0 106.667-47.756 106.667-106.667zM917.333 128c0-58.91-47.756-106.667-106.667-106.667s-106.667 47.756-106.667 106.667c0 58.91 47.756 106.667 106.667 106.667 58.91 0 106.667-47.756 106.667-106.667zM917.333 426.667c0-58.91-47.756-106.667-106.667-106.667s-106.667 47.756-106.667 106.667c0 58.91 47.756 106.667 106.667 106.667 58.91 0 106.667-47.756 106.667-106.667zM917.333 725.334c0-58.91-47.756-106.667-106.667-106.667s-106.667 47.756-106.667 106.667c0 58.91 47.756 106.667 106.667 106.667 58.91 0 106.667-47.756 106.667-106.667z" />
<glyph unicode="&#xe60b;" d="M810.667 213.334h-597.333c-47.061 0-85.333-38.272-85.333-85.333s38.272-85.333 85.333-85.333h597.333c47.061 0 85.333 38.272 85.333 85.333s-38.272 85.333-85.333 85.333zM810.667 512h-597.333c-47.061 0-85.333-38.272-85.333-85.333s38.272-85.333 85.333-85.333h597.333c47.061 0 85.333 38.272 85.333 85.333s-38.272 85.333-85.333 85.333zM810.667 810.667h-597.333c-47.061 0-85.333-38.272-85.333-85.333s38.272-85.333 85.333-85.333h597.333c47.061 0 85.333 38.272 85.333 85.333s-38.272 85.333-85.333 85.333z" />
<glyph unicode="&#xe60c;" d="M810.667 213.334h-298.667c-47.061 0-85.333-38.272-85.333-85.333s38.272-85.333 85.333-85.333h298.667c47.061 0 85.333 38.272 85.333 85.333s-38.272 85.333-85.333 85.333zM810.667 512h-298.667c-47.061 0-85.333-38.272-85.333-85.333s38.272-85.333 85.333-85.333h298.667c47.061 0 85.333 38.272 85.333 85.333s-38.272 85.333-85.333 85.333zM810.667 810.667h-298.667c-47.061 0-85.333-38.272-85.333-85.333s38.272-85.333 85.333-85.333h298.667c47.061 0 85.333 38.272 85.333 85.333s-38.272 85.333-85.333 85.333zM320 128c0-58.91-47.756-106.667-106.667-106.667s-106.667 47.756-106.667 106.667c0 58.91 47.756 106.667 106.667 106.667 58.91 0 106.667-47.756 106.667-106.667zM320 426.667c0-58.91-47.756-106.667-106.667-106.667s-106.667 47.756-106.667 106.667c0 58.91 47.756 106.667 106.667 106.667 58.91 0 106.667-47.756 106.667-106.667zM320 725.334c0-58.91-47.756-106.667-106.667-106.667s-106.667 47.756-106.667 106.667c0 58.91 47.756 106.667 106.667 106.667 58.91 0 106.667-47.756 106.667-106.667z" />
<glyph unicode="&#xe60d;" d="M341.333 810.667h-85.333c-35.2 0-67.2-14.379-90.411-37.589-23.211-23.211-37.589-55.211-37.589-90.411v-85.333c0-35.2 14.379-67.2 37.589-90.411 23.211-23.211 55.211-37.589 90.411-37.589h85.333c35.2 0 67.2 14.379 90.411 37.589s37.589 55.211 37.589 90.411v85.333c0 35.2-14.379 67.2-37.589 90.411-23.211 23.211-55.211 37.589-90.411 37.589zM768 810.667h-85.333c-35.2 0-67.2-14.379-90.411-37.589-23.211-23.211-37.589-55.211-37.589-90.411v-85.333c0-35.2 14.379-67.2 37.589-90.411s55.211-37.589 90.411-37.589h85.333c35.2 0 67.2 14.379 90.411 37.589 23.211 23.211 37.589 55.211 37.589 90.411v85.333c0 35.2-14.379 67.2-37.589 90.411-23.211 23.211-55.211 37.589-90.411 37.589zM341.333 384h-85.333c-35.2 0-67.2-14.379-90.411-37.589-23.211-23.211-37.589-55.211-37.589-90.411v-85.333c0-35.2 14.379-67.2 37.589-90.411 23.211-23.211 55.211-37.589 90.411-37.589h85.333c35.2 0 67.2 14.379 90.411 37.589 23.211 23.211 37.589 55.211 37.589 90.411v85.333c0 35.2-14.379 67.2-37.589 90.411s-55.211 37.589-90.411 37.589zM768 384h-85.333c-35.2 0-67.2-14.379-90.411-37.589s-37.589-55.211-37.589-90.411v-85.333c0-35.2 14.379-67.2 37.589-90.411 23.211-23.211 55.211-37.589 90.411-37.589h85.333c35.2 0 67.2 14.379 90.411 37.589 23.211 23.211 37.589 55.211 37.589 90.411v85.333c0 35.2-14.379 67.2-37.589 90.411-23.211 23.211-55.211 37.589-90.411 37.589z" />
<glyph unicode="&#xe60e;" d="M512 810.667c0 0-263.936-227.84-411.435-351.232-8.661-7.851-15.232-19.285-15.232-32.768 0-23.595 19.072-42.667 42.667-42.667h85.333v-298.667c0-23.595 19.072-42.667 42.667-42.667h128c23.595 0 42.667 19.115 42.667 42.667v170.667h170.667v-170.667c0-23.552 19.072-42.667 42.667-42.667h128c23.595 0 42.667 19.072 42.667 42.667v298.667h85.333c23.595 0 42.667 19.072 42.667 42.667 0 13.483-6.571 24.917-16.341 32.768-146.475 123.392-410.325 351.232-410.325 351.232z" />
<glyph unicode="&#xe60f;" d="M554.667 704.043c-10.923 0-21.845-4.139-30.165-12.459-8.32-8.363-12.501-19.285-12.501-30.208v-109.184c-192-21.248-341.333-183.851-341.333-381.483v-42.667c95.787 146.048 224 167.253 341.333 170.197v-106.197c0-10.88 4.181-21.845 12.501-30.165s19.243-12.501 30.165-12.501 21.845 4.181 30.165 12.501l268.501 264.832-268.501 264.875c-8.32 8.32-19.243 12.459-30.165 12.459z" />
<glyph unicode="&#xe610;" d="M512 552.15v109.184c0 10.923-4.181 21.845-12.501 30.208-8.32 8.32-19.243 12.459-30.165 12.459s-21.845-4.139-30.165-12.459l-268.501-264.875 268.501-264.832c8.32-8.32 19.243-12.501 30.165-12.501s21.845 4.181 30.165 12.501 12.501 19.285 12.501 30.165v106.197c117.333-2.901 245.547-24.149 341.333-170.197v42.667c0 197.675-149.333 360.235-341.333 381.483z" />
<glyph unicode="&#xe611;" d="M256.085 256.043c-47.232 0-85.504-38.272-85.419-85.376 0-47.104 38.229-85.376 85.419-85.291 47.061-0.085 85.333 38.144 85.248 85.291 0.085 47.232-38.187 85.461-85.248 85.376zM256 768c-47.104 0-85.333-38.229-85.333-85.333s38.229-85.333 85.333-85.333c235.264 0 426.667-191.403 426.667-426.667 0-47.104 38.229-85.333 85.333-85.333s85.333 38.229 85.333 85.333c0 329.387-267.947 597.333-597.333 597.333zM256 512c-47.104 0-85.333-38.229-85.333-85.333s38.229-85.333 85.333-85.333c94.080 0 170.667-76.544 170.667-170.667 0-47.104 38.229-85.333 85.333-85.333s85.333 38.229 85.333 85.333c0 188.203-153.131 341.333-341.333 341.333z" />
<glyph unicode="&#xe612;" d="M753.365 712.363c-133.291 131.115-349.397 131.115-482.688 0-133.291-131.157-133.291-343.765 0-474.88l241.323-237.44 241.365 237.44c133.291 131.115 133.291 343.723 0 474.88zM512 362.71c-28.501 0-55.253 11.093-75.435 31.232-41.6 41.6-41.6 109.269 0 150.869 20.139 20.139 46.933 31.232 75.435 31.232s55.296-11.093 75.435-31.232c41.6-41.6 41.6-109.312 0-150.869-20.139-20.139-46.933-31.232-75.435-31.232z" />
<glyph unicode="&#xe613;" d="M779.819 668.971c-18.347 18.347-48.043 18.347-66.389 0l-73.429-73.472-13.141 13.141c-49.835 49.835-137.216 49.835-187.051 0l-178.005-178.005c-24.917-24.917-38.656-58.155-38.656-93.525s13.739-68.608 38.656-93.525l13.141-13.141-73.472-73.472c-18.347-18.347-18.347-48.043 0-66.389 9.173-9.173 21.163-13.739 33.195-13.739s24.021 4.565 33.195 13.739l73.472 73.472 13.141-13.141c24.917-24.917 58.112-38.656 93.525-38.656s68.608 13.739 93.525 38.656l178.005 178.005c24.917 24.917 38.656 58.112 38.656 93.525s-13.739 68.608-38.656 93.525l-13.141 13.141 73.472 73.472c18.304 18.347 18.304 48.043-0.043 66.389zM653.141 395.307l-178.005-178.005c-7.168-7.168-17.152-10.795-27.136-10.795s-19.968 3.584-27.136 10.795l-13.141 13.141 30.805 30.805c18.347 18.347 18.347 48.043 0 66.389-9.173 9.173-21.163 13.739-33.195 13.739s-24.021-4.565-33.195-13.739l-30.805-30.805-13.141 13.141c-7.168 7.168-11.136 16.853-11.136 27.136s3.968 19.968 11.136 27.136l178.005 178.005c7.168 7.168 16.811 11.136 27.136 11.136s19.968-3.968 27.136-11.136l13.141-13.141-30.805-30.805c-18.347-18.347-18.347-48.043 0-66.389 9.173-9.173 21.163-13.739 33.195-13.739s24.021 4.565 33.195 13.739l30.805 30.805 13.141-13.141c7.168-7.168 11.136-16.853 11.136-27.136s-3.968-19.968-11.136-27.136z" />
<glyph unicode="&#xe614;" d="M469.333 575.958c0-58.91-47.756-106.667-106.667-106.667-58.91 0-106.667 47.756-106.667 106.667 0 58.91 47.756 106.667 106.667 106.667 58.91 0 106.667-47.756 106.667-106.667zM682.667 512c-85.333 0-128-128-192-128s-63.957 42.667-149.333 42.667c-85.333 0-128.043-170.667-128.043-170.667h597.376c0 0-42.667 256-128 256zM853.333 810.667h-682.667c-47.061 0-85.333-38.272-85.333-85.333v-512c0-47.061 38.272-85.333 85.333-85.333h682.667c47.061 0 85.333 38.272 85.333 85.333v512c0 47.061-38.272 85.333-85.333 85.333zM853.333 213.334h-682.667v512h682.667v-512z" />
<glyph unicode="&#xe615;" d="M512 803.328l-273.664-273.664c-33.323-33.323-33.323-87.339 0-120.661s87.339-33.323 120.661 0l67.669 67.669v-308.992c0-47.104 38.187-85.333 85.333-85.333 47.104 0 85.333 38.229 85.333 85.333v308.992l67.669-67.669c16.683-16.683 38.485-25.003 60.331-25.003s43.648 8.32 60.331 25.003c33.323 33.323 33.323 87.339 0 120.661l-273.664 273.664z" />
<glyph unicode="&#xe616;" d="M785.664 484.011c-33.323 33.323-87.339 33.323-120.661 0l-67.669-67.669v308.992c0 47.147-38.229 85.333-85.333 85.333-47.147 0-85.333-38.187-85.333-85.333v-308.992l-67.669 67.669c-33.323 33.323-87.339 33.323-120.661 0s-33.323-87.339 0-120.661l273.664-273.664 273.664 273.664c33.323 33.323 33.323 87.296 0 120.661z" />
<glyph unicode="&#xe617;" d="M813.397 507.35l50.304 101.845c3.157 6.357 2.901 13.952-0.64 20.096-3.541 6.187-9.984 10.155-17.109 10.624l-113.323 7.339-7.339 113.323c-0.469 7.125-4.437 13.525-10.624 17.109-6.187 3.584-13.739 3.84-20.139 0.64l-101.76-50.347-63.019 94.507c-7.936 11.861-27.563 11.861-35.499 0l-63.019-94.507-101.76 50.347c-6.443 3.2-13.952 2.944-20.139-0.64-6.187-3.541-10.155-9.984-10.624-17.109l-7.296-113.323-113.365-7.296c-7.125-0.469-13.568-4.437-17.109-10.624-3.584-6.187-3.797-13.739-0.64-20.139l50.304-101.803-94.464-63.019c-5.931-3.968-9.515-10.624-9.515-17.749s3.541-13.781 9.515-17.749l94.507-63.019-50.347-101.803c-3.157-6.4-2.901-13.952 0.64-20.139 3.541-6.144 9.984-10.155 17.109-10.581l113.323-7.296 7.296-113.365c0.469-7.125 4.437-13.525 10.624-17.109 6.144-3.541 13.653-3.755 20.139-0.64l101.803 50.304 63.019-94.464c3.968-5.931 10.624-9.515 17.749-9.515s13.781 3.541 17.749 9.515l63.019 94.464 101.803-50.304c6.4-3.115 13.952-2.901 20.139 0.64s10.155 9.984 10.624 17.109l7.296 113.323 113.323 7.339c7.125 0.469 13.525 4.437 17.109 10.624 3.541 6.187 3.797 13.739 0.64 20.139l-50.304 101.76 94.464 63.061c5.931 3.968 9.515 10.624 9.515 17.749s-3.541 13.781-9.515 17.749l-94.464 62.933z" />
<glyph unicode="&#xe618;" d="M919.723 462.123l-78.891 52.565 41.984 85.035c6.315 12.8 5.845 27.904-1.28 40.235-7.168 12.373-19.968 20.352-34.219 21.248l-94.635 6.101-6.144 94.635c-0.853 14.251-8.875 27.093-21.205 34.219-12.373 7.125-27.52 7.68-40.235 1.28l-84.949-42.027-52.608 78.891c-15.829 23.765-55.168 23.765-70.997 0l-52.651-78.848-84.992 41.984c-12.757 6.4-27.904 5.845-40.235-1.28-12.373-7.125-20.352-19.968-21.248-34.219l-6.101-94.592-94.635-6.101c-14.251-0.939-27.093-8.917-34.219-21.248s-7.637-27.477-1.28-40.235l41.984-85.035-78.891-52.608c-11.861-7.936-18.987-21.248-18.987-35.499s7.125-27.563 18.987-35.499l78.933-52.608-42.027-84.992c-6.315-12.8-5.845-27.904 1.28-40.235s19.968-20.352 34.219-21.248l94.635-6.101 6.101-94.635c0.896-14.208 8.875-27.051 21.248-34.176s27.392-7.637 40.235-1.323l84.992 42.027 52.608-78.891c7.936-11.861 21.248-18.987 35.499-18.987s27.563 7.125 35.499 18.987l52.608 78.891 84.949-42.027c12.757-6.315 27.861-5.803 40.235 1.28 12.373 7.125 20.352 19.968 21.248 34.219l6.101 94.592 94.677 6.144c14.251 0.896 27.093 8.875 34.219 21.248s7.637 27.477 1.28 40.235l-41.984 84.992 78.891 52.608c11.861 7.936 18.987 21.248 18.987 35.499s-7.125 27.605-18.987 35.499zM747.691 334.251l30.293-61.227-68.267-4.437c-21.419-1.408-38.443-18.432-39.851-39.851l-4.395-68.181-61.227 30.251c-19.2 9.557-42.496 3.285-54.4-14.592l-37.845-56.747-37.931 56.875c-8.149 12.245-21.675 18.987-35.541 18.987-6.357 0-12.8-1.408-18.859-4.437l-61.269-30.251-4.395 68.181c-1.365 21.376-18.432 38.443-39.851 39.851l-68.096 4.395 30.293 61.227c9.515 19.243 3.243 42.539-14.592 54.4l-56.875 37.931 56.832 37.888c17.835 11.904 24.064 35.2 14.592 54.4l-30.293 61.269 68.267 4.395c21.419 1.408 38.443 18.432 39.851 39.851l4.395 68.181 61.227-30.251c19.115-9.429 42.496-3.243 54.4 14.592l37.845 56.789 37.931-56.875c11.904-17.835 35.243-24.021 54.4-14.592l61.269 30.293 4.437-68.224c1.408-21.376 18.475-38.4 39.851-39.808l68.181-4.395-30.251-61.312c-9.515-19.243-3.243-42.496 14.592-54.4l56.832-37.888-56.875-37.931c-17.92-11.819-24.149-35.115-14.677-54.357z" />
<glyph unicode="&#xe619;" d="M399.445 547.926c0 0-134.827-14.933-224.768-24.917-8.107-0.981-15.275-6.4-17.963-14.635s0-16.811 5.973-22.229c66.816-60.971 167.211-152.277 167.211-152.277-0.085 0-27.563-132.821-45.824-221.44-1.536-8.021 1.365-16.512 8.363-21.589 6.955-5.077 15.915-5.163 22.955-1.195 78.677 44.715 196.523 111.957 196.523 111.957s117.888-67.243 196.437-112c7.168-3.925 16.128-3.84 23.083 1.237 6.997 5.077 9.899 13.568 8.32 21.547-18.261 88.661-45.696 221.483-45.696 221.483s100.395 91.307 167.211 152.149c5.973 5.589 8.619 14.165 5.973 22.357s-9.813 13.611-17.92 14.549c-89.941 10.069-224.811 25.003-224.811 25.003s-55.893 123.648-93.141 206.080c-3.499 7.381-10.837 12.544-19.456 12.544s-16-5.205-19.328-12.544c-37.291-82.432-93.141-206.080-93.141-206.080z" />
<glyph unicode="&#xe61a;" d="M725.333 256c-55.68 0-102.528-35.712-120.149-85.333h-135.851c-70.571 0-128 57.429-128 128v129.067c35.755-27.051 79.787-43.733 128-43.733h135.851c17.621-49.621 64.512-85.333 120.149-85.333 70.699 0 128 57.301 128 128s-57.301 128-128 128c-55.68 0-102.528-35.712-120.149-85.333h-135.851c-70.571 0-128 57.429-128 128v7.851c49.621 17.621 85.333 64.512 85.333 120.149 0 70.699-57.301 128-128 128s-128-57.301-128-128c0-55.637 35.712-102.528 85.333-120.149v-306.517c0-117.632 95.701-213.333 213.333-213.333h135.851c17.621-49.621 64.512-85.333 120.149-85.333 70.699 0 128 57.301 128 128s-57.301 128-128 128zM725.333 469.334c23.552 0 42.667-19.157 42.667-42.667s-19.115-42.667-42.667-42.667-42.667 19.157-42.667 42.667 19.115 42.667 42.667 42.667zM298.667 768c23.552 0 42.667-19.157 42.667-42.667s-19.115-42.667-42.667-42.667-42.667 19.157-42.667 42.667 19.115 42.667 42.667 42.667zM725.333 85.334c-23.552 0-42.667 19.157-42.667 42.667s19.115 42.667 42.667 42.667 42.667-19.157 42.667-42.667-19.115-42.667-42.667-42.667z" />
<glyph unicode="&#xe61b;" d="M341.333 234.667v-21.333c72.149 109.995 153.6 168.661 256 170.667 0-44.587 0-121.088 0-128 0-23.509 21.803-42.667 48.768-42.667 15.531 0 28.8 6.741 37.675 16.683 82.475 86.571 254.891 260.651 254.891 260.651s-172.416 174.165-254.933 261.845c-8.875 8.747-22.101 15.488-37.632 15.488-26.965 0-48.768-19.072-48.768-42.667 0-7.168 0-80.085 0-128-198.827 0-256-207.829-256-362.667zM213.333 42.667h597.333c23.595 0 42.667 19.115 42.667 42.667v257.963c-28.331-28.843-58.197-59.435-85.333-87.339v-127.957h-512v512h298.667v85.333h-341.333c-23.595 0-42.667-19.115-42.667-42.667v-597.333c0-23.552 19.072-42.667 42.667-42.667z" />
<glyph unicode="&#xe61c;" d="M512 768c-188.544 0-341.333-152.832-341.333-341.333s152.789-341.333 341.333-341.333 341.333 152.832 341.333 341.333-152.789 341.333-341.333 341.333zM670.165 328.832c16.683-16.683 16.683-43.648 0-60.331-8.32-8.32-19.243-12.501-30.165-12.501s-21.845 4.181-30.165 12.501l-97.835 97.835-97.835-97.835c-8.32-8.32-19.243-12.501-30.165-12.501s-21.845 4.181-30.165 12.501c-16.683 16.683-16.683 43.648 0 60.331l97.835 97.835-97.835 97.835c-16.683 16.683-16.683 43.648 0 60.331s43.648 16.683 60.331 0l97.835-97.835 97.835 97.835c16.683 16.683 43.648 16.683 60.331 0s16.683-43.648 0-60.331l-97.835-97.835 97.835-97.835z" />
<glyph unicode="&#xe61d;" d="M512 810.667c-211.755 0-384-172.288-384-384s172.245-384 384-384 384 172.288 384 384-172.245 384-384 384zM512 128c-164.651 0-298.667 133.973-298.667 298.667s134.016 298.667 298.667 298.667 298.667-133.973 298.667-298.667-134.016-298.667-298.667-298.667zM542.165 426.667l112.896 112.896c8.277 8.277 8.277 21.845 0 30.165-8.32 8.277-21.888 8.277-30.165 0l-112.896-112.896-112.896 112.939c-8.32 8.277-21.888 8.277-30.165 0-8.32-8.32-8.32-21.888 0-30.165l112.896-112.939-112.896-112.896c-8.32-8.32-8.32-21.888 0-30.165 4.139-4.181 9.6-6.272 15.061-6.272s10.923 2.091 15.104 6.229l112.896 112.939 112.896-112.896c4.181-4.181 9.643-6.272 15.104-6.272s10.923 2.091 15.104 6.229c8.277 8.277 8.277 21.845 0 30.165l-112.939 112.939z" />
<glyph unicode="&#xe61e;" d="M725.333 554.667c-4.907 0-9.856-0.213-14.976-0.64-35.2 101.419-130.645 171.307-241.024 171.307-141.184 0-256-114.816-256-256 0-1.792 0-3.584 0.043-5.376-73.557-18.987-128.043-85.888-128.043-165.291 0-94.123 76.544-170.667 170.667-170.667h213.333v195.669l-55.168-55.168c-8.32-8.32-19.243-12.501-30.165-12.501s-21.845 4.181-30.165 12.501c-16.683 16.683-16.683 43.648 0 60.331l127.957 127.957c3.968 3.968 8.661 7.083 13.909 9.259 10.411 4.309 22.187 4.309 32.597 0 5.248-2.176 9.941-5.291 13.909-9.259l127.957-127.957c16.683-16.683 16.683-43.648 0-60.331-8.32-8.32-19.243-12.501-30.165-12.501s-21.845 4.181-30.165 12.501l-55.168 55.168v-195.669h170.667c117.632 0 213.333 95.701 213.333 213.333s-95.701 213.333-213.333 213.333z" />
<glyph unicode="&#xe61f;" d="M572.331 110.422c33.408 33.237 33.408 87.339 0 120.576-33.323 33.493-87.424 33.493-120.661 0.085-33.408-33.408-33.408-87.509 0-120.789 33.323-33.28 87.424-33.323 120.661 0.128zM874.027 447.36c-21.845 0-43.691 8.32-60.331 25.003-166.357 166.357-437.035 166.315-603.435 0-33.365-33.323-87.381-33.28-120.704 0-33.323 33.323-33.323 87.339 0 120.704 232.917 232.875 611.883 232.875 844.757 0 33.323-33.323 33.323-87.339 0-120.661-16.597-16.683-38.443-25.045-60.288-25.045zM330.965 266.368c-21.845 0-43.691 8.32-60.331 25.003-33.323 33.323-33.323 87.339 0 120.661 133.035 133.077 349.611 133.077 482.688 0 33.323-33.323 33.323-87.339 0-120.704-33.323-33.323-87.339-33.323-120.704 0-66.517 66.56-174.805 66.517-241.365 0-16.597-16.64-38.443-24.96-60.288-24.96z" />
<glyph unicode="&#xe620;" d="M512 496c0 103.083-83.584 186.667-186.667 186.667s-186.667-83.584-186.667-186.667c0-48.085 6.784-118.784 74.667-186.667s298.667-224 298.667-224 230.784 156.117 298.667 224 74.667 138.581 74.667 186.667c0 103.083-83.584 186.667-186.667 186.667s-186.667-83.584-186.667-186.667z" />
<glyph unicode="&#xe621;" d="M746.752 425.259l-180.949 104.875 91.221 218.923c2.816 5.717 4.395 12.16 4.395 18.944 0 23.552-18.987 42.667-42.539 42.667-10.624-0.171-19.499-3.541-26.539-9.131-1.408-1.109-2.261-1.792-2.987-2.56l-320-302.933c-9.771-9.259-14.592-22.571-13.056-35.925 1.536-13.355 9.344-25.216 20.949-32l180.992-104.96-92.288-221.44c-7.808-18.603-1.451-40.107 15.104-51.541 7.381-5.035 15.872-7.509 24.277-7.509 10.581 0 21.163 3.968 29.355 11.691l320 303.019c9.771 9.259 14.592 22.571 13.056 35.925-1.579 13.355-9.387 25.216-20.992 31.957z" />
<glyph unicode="&#xe622;" d="M512 768c-188.203 0-341.333-153.131-341.333-341.333s153.131-341.333 341.333-341.333 341.333 153.131 341.333 341.333-153.131 341.333-341.333 341.333zM298.667 426.667c0 35.499 9.557 68.437 24.917 97.92l286.336-286.336c-29.483-15.36-62.421-24.917-97.92-24.917-117.632 0-213.333 95.701-213.333 213.333zM700.416 328.747l-286.336 286.336c29.483 15.36 62.421 24.917 97.92 24.917 117.632 0 213.333-95.701 213.333-213.333 0-35.499-9.557-68.437-24.917-97.92z" />
<glyph unicode="&#xe623;" d="M832 725.334h-426.667c-54.016 0-120.917-34.432-152.32-78.379l-111.36-155.861c-27.392-38.315-50.432-70.571-51.157-71.637-5.163-7.467-5.205-20.992 0.128-28.331 0.981-1.408 23.68-33.152 50.688-70.997l111.744-156.459c31.36-43.904 98.219-78.336 152.277-78.336h426.667c58.837 0 106.667 47.872 106.667 106.667v426.667c0 58.795-47.829 106.667-106.667 106.667zM734.165 307.499c16.683-16.683 16.683-43.648 0-60.331-8.32-8.32-19.243-12.501-30.165-12.501s-21.845 4.181-30.165 12.501l-97.835 97.835-97.835-97.835c-8.32-8.32-19.243-12.501-30.165-12.501s-21.845 4.181-30.165 12.501c-16.683 16.683-16.683 43.648 0 60.331l97.835 97.835-97.835 97.835c-16.683 16.683-16.683 43.648 0 60.331s43.648 16.683 60.331 0l97.835-97.835 97.835 97.835c16.683 16.683 43.648 16.683 60.331 0s16.683-43.648 0-60.331l-97.835-97.835 97.835-97.835z" />
<glyph unicode="&#xe624;" d="M783.531 655.574c-66.603 66.517-174.933 66.517-241.408 0l-193.451-193.493c-20.181-20.181-31.275-46.933-31.275-75.52 0-28.501 11.136-55.253 31.232-75.435 20.779-20.736 48.128-31.147 75.477-31.147 27.307 0 54.571 10.325 75.392 31.147l90.539 90.496c16.683 16.853 25.003 38.571 25.003 60.331 0 21.845-8.32 43.648-25.003 60.331l-150.869-150.827c-8.235-8.32-21.803-8.32-30.208 0.085-5.419 5.419-6.229 11.733-6.229 15.019 0 3.328 0.811 9.685 6.229 15.104l193.493 193.579c33.195 33.237 87.381 33.237 120.747 0 33.237-33.237 33.237-87.424 0-120.661l-301.739-301.739c-33.237-33.237-87.424-33.237-120.661 0-33.28 33.237-33.28 87.424 0 120.661l4.053 4.096c-19.243 25.6-29.952 57.984-29.952 90.667l-34.432-34.432c-66.56-66.517-66.56-174.848 0-241.323 33.237-33.237 76.971-49.92 120.661-49.92s87.424 16.683 120.661 49.92l301.739 301.739c66.56 66.517 66.56 174.763 0 241.323z" />
<glyph unicode="&#xe625;" d="M755.499 584.832c-16.683 16.683-43.648 16.683-60.331 0s-16.683-43.648 0-60.331l55.168-55.168h-195.669v195.669l55.168-55.168c8.32-8.32 19.243-12.501 30.165-12.501s21.845 4.181 30.165 12.501c16.683 16.683 16.683 43.648 0 60.331l-158.165 158.165-158.165-158.165c-16.683-16.683-16.683-43.648 0-60.331s43.648-16.683 60.331 0l55.168 55.168v-195.669h-195.669l55.168 55.168c16.683 16.683 16.683 43.648 0 60.331s-43.648 16.683-60.331 0l-158.165-158.165 158.165-158.165c8.32-8.32 19.243-12.501 30.165-12.501s21.845 4.181 30.165 12.501c16.683 16.683 16.683 43.648 0 60.331l-55.168 55.168h195.669v-195.669l-55.168 55.168c-16.683 16.683-43.648 16.683-60.331 0s-16.683-43.648 0-60.331l158.165-158.165 158.165 158.165c16.683 16.683 16.683 43.648 0 60.331s-43.648 16.683-60.331 0l-55.168-55.168v195.669h195.669l-55.168-55.168c-16.683-16.683-16.683-43.648 0-60.331 8.32-8.32 19.243-12.501 30.165-12.501s21.845 4.181 30.165 12.501l158.165 158.165-158.165 158.165z" />
<glyph unicode="&#xe626;" d="M903.296 281.686l-252.245 420.437c-33.109 55.168-83.755 86.741-139.051 86.741s-105.941-31.573-139.051-86.656l-252.245-420.523c-33.536-55.851-37.205-115.413-10.027-163.413 27.136-48.043 80.128-75.605 145.323-75.605h512c65.195 0 118.187 27.563 145.323 75.563 27.179 48 23.509 107.563-10.027 163.456zM512 189.91c-36.437 0-66.133 29.653-66.133 66.091 0 36.48 29.653 66.176 66.133 66.176s66.133-29.696 66.133-66.176c0-36.437-29.696-66.091-66.133-66.091zM581.675 506.667c-0.469-1.323-59.776-147.968-59.776-147.968-1.621-4.011-5.547-6.656-9.856-6.656s-8.235 2.645-9.856 6.656l-59.349 146.688c-3.84 9.941-5.504 18.901-5.504 27.947 0 41.173 33.493 74.667 74.667 74.667s74.667-33.493 74.667-74.667c0-9.045-1.664-18.005-4.992-26.667z" />
<glyph unicode="&#xe627;" d="M725.333 554.667c0 58.923-23.893 112.256-62.464 150.827-38.613 38.613-91.947 62.507-150.869 62.507s-112.256-23.893-150.869-62.507c-38.571-38.571-62.464-91.904-62.464-150.827s23.893-112.256 62.464-150.827c38.613-38.613 91.947-62.507 150.869-62.507s112.256 23.893 150.869 62.507c38.571 38.571 62.464 91.904 62.464 150.827zM256 128c0-42.667 96-85.333 256-85.333 150.101 0 256 42.667 256 85.333 0 85.333-100.437 170.667-256 170.667-160 0-256-85.333-256-170.667z" />
<glyph unicode="&#xe628;" d="M512 85.334c164.693 0 298.667 134.016 298.667 298.667s-133.973 298.667-298.795 298.667c-164.608 0-298.539-134.016-298.539-298.667s133.973-298.667 298.667-298.667zM469.333 592.982v-80.981c0-23.595 19.115-42.667 42.667-42.667s42.667 19.072 42.667 42.667v80.981c83.456-16.981 149.333-82.859 166.357-166.315h-81.024c-23.552 0-42.667-19.072-42.667-42.667s19.115-42.667 42.667-42.667h81.024c-17.024-83.456-82.901-149.333-166.357-166.315v80.981c0 23.595-19.115 42.667-42.667 42.667s-42.667-19.072-42.667-42.667v-80.981c-83.456 16.981-149.333 82.859-166.357 166.315h81.024c23.552 0 42.667 19.072 42.667 42.667s-19.115 42.667-42.667 42.667h-81.024c17.024 83.456 82.859 149.333 166.357 166.315z" />
<glyph unicode="&#xe629;" d="M768 768c-94.123 0-170.667-76.587-170.667-170.667v-128h-170.667v42.667h-128c-47.061 0-85.333-38.229-85.333-85.333v-298.667c0-47.104 38.272-85.333 85.333-85.333h426.667c47.061 0 85.333 38.229 85.333 85.333v298.667c0 47.104-38.272 85.333-85.333 85.333h-42.667v85.333c0 47.104 38.272 85.333 85.333 85.333s85.333-38.229 85.333-85.333v-128c0-23.595 19.115-42.667 42.667-42.667s42.667 19.072 42.667 42.667v128c0 94.080-76.544 170.667-170.667 170.667zM512 157.91c-30.677 0-55.467 24.747-55.467 55.424s24.789 55.509 55.467 55.509 55.467-24.832 55.467-55.509-24.789-55.424-55.467-55.424z" />
<glyph unicode="&#xe62a;" d="M725.333 512h-42.667v85.333c0 94.080-76.544 170.667-170.667 170.667s-170.667-76.587-170.667-170.667v-85.333h-42.667c-47.061 0-85.333-38.229-85.333-85.333v-298.667c0-47.104 38.272-85.333 85.333-85.333h426.667c47.061 0 85.333 38.229 85.333 85.333v298.667c0 47.104-38.272 85.333-85.333 85.333zM512 157.91c-30.677 0-55.467 24.747-55.467 55.424s24.789 55.509 55.467 55.509 55.467-24.832 55.467-55.509-24.789-55.424-55.467-55.424zM597.333 469.334h-170.667v128c0 47.104 38.272 85.333 85.333 85.333s85.333-38.229 85.333-85.333v-128z" />
<glyph unicode="&#xe62b;" d="M442.368 123.648c14.891-44.757 43.136-46.336 63.061-3.669l226.517 485.333c19.925 42.752 1.451 61.184-41.259 41.259l-485.376-226.475c-42.709-19.925-41.088-48.171 3.627-63.104l175.061-58.325 58.368-175.019z" />
<glyph unicode="&#xe62c;" d="M903.296 281.686l-252.245 420.437c-33.109 55.168-83.755 86.741-139.051 86.741s-105.941-31.573-139.051-86.656l-252.245-420.523c-33.536-55.851-37.205-115.413-10.027-163.413 27.136-48.043 80.128-75.605 145.323-75.605h512c65.195 0 118.187 27.563 145.323 75.563 27.179 48 23.509 107.563-10.027 163.456zM512 578.176c36.437-0.085 66.091-29.781 66.176-66.133 0-36.395-29.653-66.091-66.133-66.176-36.437 0.085-66.133 29.781-66.219 66.133 0 36.48 29.696 66.176 66.176 66.176zM584.107 217.174c-1.365-1.579-33.92-39.168-88.235-39.168-2.176 0-4.395 0.043-6.571 0.171-21.675 1.28-39.595 10.88-50.56 27.051-13.44 19.84-15.275 47.488-5.163 77.867l17.323 52.096c9.6 29.141 0.427 33.792-4.523 36.267-1.323 0.683-3.413 1.067-5.973 1.067-10.709 0-25.472-6.315-30.208-8.789-4.437-2.304-10.027-1.109-13.269 2.859-3.115 4.053-3.029 9.685 0.299 13.568 1.408 1.664 36.992 42.453 94.848 38.997 21.547-1.237 39.467-10.795 50.432-26.923 13.483-19.84 15.36-47.531 5.291-77.995l-17.323-52.096c-9.685-29.099-0.427-33.792 4.523-36.267 0.853-0.427 2.645-0.981 5.845-0.981 10.837 0 25.6 6.315 30.379 8.747 4.523 2.389 10.027 1.109 13.227-2.901 3.072-4.053 2.987-9.685-0.341-13.568z" />
<glyph unicode="&#xe62d;" d="M896 341.334h-256c-23.595 0-42.667 19.072-42.667 42.667s19.072 42.667 42.667 42.667h256c23.595 0 42.667-19.072 42.667-42.667s-19.072-42.667-42.667-42.667zM597.333 554.667c0-58.923-23.893-112.256-62.464-150.827-38.613-38.613-91.947-62.507-150.869-62.507s-112.256 23.893-150.869 62.507c-38.571 38.571-62.464 91.904-62.464 150.827s23.893 112.256 62.464 150.827c38.613 38.613 91.947 62.507 150.869 62.507s112.256-23.893 150.869-62.507c38.571-38.571 62.464-91.904 62.464-150.827zM384 298.667c-160 0-256-85.333-256-170.667 0-42.667 96-85.333 256-85.333 150.101 0 256 42.667 256 85.333s-100.437 170.667-256 170.667z" />
<glyph unicode="&#xe62e;" d="M384 341.334c58.923 0 112.256 23.893 150.869 62.507 38.571 38.571 62.464 91.904 62.464 150.827s-23.893 112.256-62.464 150.827c-38.613 38.613-91.947 62.507-150.869 62.507s-112.256-23.893-150.869-62.507c-38.571-38.571-62.464-91.904-62.464-150.827s23.893-112.256 62.464-150.827c38.613-38.613 91.947-62.507 150.869-62.507zM384 42.667c150.101 0 256 42.667 256 85.333 0 85.333-100.437 170.667-256 170.667-160 0-256-85.333-256-170.667 0-42.667 96-85.333 256-85.333zM896 426.667h-85.333v85.333c0 23.595-19.072 42.667-42.667 42.667s-42.667-19.072-42.667-42.667v-85.333h-85.333c-23.595 0-42.667-19.072-42.667-42.667s19.072-42.667 42.667-42.667h85.333v-85.333c0-23.595 19.072-42.667 42.667-42.667s42.667 19.072 42.667 42.667v85.333h85.333c23.595 0 42.667 19.072 42.667 42.667s-19.072 42.667-42.667 42.667z" />
<glyph unicode="&#xe62f;" d="M341.333 682.667c-47.104 0-85.333-38.229-85.333-85.333v-341.333c0-47.104 38.229-85.333 85.333-85.333s85.333 38.229 85.333 85.333v341.333c0 47.104-38.229 85.333-85.333 85.333zM640 682.667c-47.104 0-85.333-38.229-85.333-85.333v-341.333c0-47.104 38.229-85.333 85.333-85.333s85.333 38.229 85.333 85.333v341.333c0 47.104-38.229 85.333-85.333 85.333z" />
<glyph unicode="&#xe630;" d="M512 341.334c58.923 0 112.256 23.893 150.869 62.507 38.571 38.571 62.464 91.904 62.464 150.827s-23.893 112.256-62.464 150.827c-38.613 38.613-91.947 62.507-150.869 62.507s-112.256-23.893-150.869-62.507c-38.571-38.571-62.464-91.904-62.464-150.827s23.893-112.256 62.464-150.827c38.613-38.613 91.947-62.507 150.869-62.507zM853.333 298.667c29.44 0 56.107 11.904 75.435 31.189s31.232 45.952 31.232 75.477c0 29.44-11.904 56.107-31.232 75.435-19.328 19.328-45.995 31.232-75.435 31.232-29.483 0-56.149-11.904-75.477-31.232-19.285-19.328-31.189-45.995-31.189-75.435 0-29.483 11.904-56.149 31.189-75.477s45.995-31.189 75.477-31.189zM853.333 273.494c-56.789 0-99.499-17.323-124.459-41.301-47.573 39.125-122.795 66.475-216.875 66.475-96.683 0-170.453-27.648-217.259-66.731-25.429 24.107-68.608 41.557-124.075 41.557-93.355 0-149.333-46.507-149.333-93.099 0-23.253 55.979-46.592 149.333-46.592 25.771 0 48.896 2.176 69.248 5.675-0.427-3.883-1.707-7.68-1.707-11.52 0-42.667 102.656-85.333 273.792-85.333 160.512 0 273.792 42.667 273.792 85.333 0 3.627-0.469 7.253-0.853 10.88 19.755-3.115 42.453-5.035 68.395-5.035 87.509 0 149.333 23.339 149.333 46.592 0 46.592-58.581 93.099-149.333 93.099zM170.667 298.667c29.44 0 56.107 11.904 75.435 31.232s31.232 45.995 31.232 75.435c0 29.397-11.904 56.064-31.232 75.435-19.328 19.285-45.995 31.232-75.435 31.232-29.483 0-56.149-11.947-75.477-31.232-19.285-19.371-31.189-46.037-31.189-75.435 0-29.44 11.904-56.107 31.189-75.435 19.328-19.328 45.995-31.232 75.477-31.232z" />
<glyph unicode="&#xe631;" d="M495.531 342.187l209.408-210.005c16.64-16.683 42.24-15.36 54.869 4.523 37.547 59.477 59.435 129.877 59.435 205.44 0 90.923-31.616 174.336-84.139 240.256l-239.573-240.213zM384 324.438v313.813c-144.683-20.779-256-145.28-256-296.064 0-165.376 133.717-299.52 298.667-299.52 67.072 0 128.768 22.443 178.603 59.861l-221.269 221.909zM696.789 673.579c16.64 16.683 15.573 42.624-3.797 56.021-53.461 37.035-114.987 63.104-181.376 75.307-23.211 4.267-42.283-13.312-42.283-36.907v-322.56l227.456 228.139z" />
<glyph unicode="&#xe632;" d="M202.667 274.731c15.744-12.544 34.603-18.731 53.248-18.731 25.088 0 49.835 11.008 66.688 32.085l118.997 148.736 104.533-78.421c36.864-27.648 89.088-20.992 117.845 15.019l170.667 213.333c29.44 36.736 23.467 90.496-13.312 119.936-36.821 29.397-90.496 23.509-119.979-13.312l-118.997-148.736-104.491 78.293c-36.864 27.648-89.045 21.077-117.845-14.933l-170.667-213.333c-29.44-36.821-23.424-90.496 13.312-119.936zM213.333 42.667h597.333c23.595 0 42.667 19.072 42.667 42.667s-19.072 42.667-42.667 42.667h-597.333c-23.595 0-42.667-19.072-42.667-42.667s19.072-42.667 42.667-42.667z" />
<glyph unicode="&#xe633;" d="M597.333 768c0 47.147-38.229 85.333-85.333 85.333s-85.333-38.187-85.333-85.333v-512h170.667v512zM810.667 597.334c0 47.147-38.229 85.333-85.333 85.333s-85.333-38.187-85.333-85.333v-341.333h170.667v341.333zM384 469.334c0 47.147-38.229 85.333-85.333 85.333s-85.333-38.187-85.333-85.333v-213.333h170.667v213.333zM810.667 128h-597.333c-23.595 0-42.667-19.072-42.667-42.667s19.072-42.667 42.667-42.667h597.333c23.595 0 42.667 19.072 42.667 42.667s-19.072 42.667-42.667 42.667z" />
<glyph unicode="&#xe634;" d="M853.333 682.667c0 25.045-10.965 49.792-32 66.645-36.821 29.44-90.496 23.509-119.979-13.312l-118.997-148.736-104.491 78.336c-36.864 27.648-89.045 21.035-117.845-14.976l-170.667-213.333c-12.544-15.701-18.688-34.603-18.688-53.291v-128h682.667v426.667zM853.333 128h-682.667c-23.552 0-42.667-19.072-42.667-42.667s19.115-42.667 42.667-42.667h682.667c23.552 0 42.667 19.072 42.667 42.667s-19.115 42.667-42.667 42.667z" />
<glyph unicode="&#xe635;" d="M961.067 633.643c-6.827 4.224-14.592 6.357-22.4 6.357-6.528 0-13.056-1.493-19.072-4.48l-108.928-54.485v16.299c0 70.571-57.429 128-128 128h-469.333c-70.571 0-128-57.429-128-128v-341.333c0-70.571 57.429-128 128-128h469.333c70.571 0 128 57.429 128 128v16.299l108.928-54.443c6.016-3.029 12.544-4.523 19.072-4.523 7.808 0 15.573 2.133 22.4 6.357 12.587 7.808 20.267 21.504 20.267 36.309v341.333c0 14.805-7.68 28.501-20.267 36.309zM298.667 362.667c-35.371 0-64 28.629-64 64s28.629 64 64 64 64-28.629 64-64-28.629-64-64-64z" />
<glyph unicode="&#xe636;" d="M704 469.334c82.347 0 149.333 66.987 149.333 149.333s-66.987 149.333-149.333 149.333-149.333-66.987-149.333-149.333v-64h-85.333v64c0 82.347-66.987 149.333-149.333 149.333s-149.333-66.987-149.333-149.333 66.987-149.333 149.333-149.333h64v-85.333h-64c-82.347 0-149.333-66.987-149.333-149.333s66.987-149.333 149.333-149.333 149.333 66.987 149.333 149.333v64h85.333v-64c0-82.347 66.987-149.333 149.333-149.333s149.333 66.987 149.333 149.333-66.987 149.333-149.333 149.333h-64v85.333h64zM640 618.667c0 35.328 28.715 64 64 64s64-28.672 64-64c0-35.243-28.715-64-64-64h-64v64zM384 234.667c0-35.243-28.715-64-64-64s-64 28.757-64 64c0 35.328 28.715 64 64 64h64v-64zM384 554.667h-64c-35.285 0-64 28.757-64 64 0 35.328 28.715 64 64 64s64-28.672 64-64v-64zM554.667 384h-85.333v85.333h85.333v-85.333zM704 298.667c35.285 0 64-28.672 64-64 0-35.243-28.715-64-64-64s-64 28.757-64 64v64h64z" />
<glyph unicode="&#xe637;" d="M701.141 571.904c-49.195 0-95.445-19.157-129.536-53.163l-59.563-57.173-58.667 56.32c-34.773 34.859-81.109 54.016-130.347 54.016-49.237 0-95.531-19.243-130.261-54.016-34.859-34.816-54.059-81.067-54.059-130.347 0-49.152 19.157-95.488 54.016-130.261 34.731-34.816 81.024-54.016 130.304-54.016 49.195 0 95.531 19.157 129.536 53.248l59.52 57.088 58.709-56.32c34.773-34.816 81.109-54.016 130.347-54.016s95.488 19.157 130.261 54.016c34.859 34.731 54.059 81.067 54.059 130.347s-19.157 95.488-54.016 130.347c-34.859 34.773-81.109 53.931-130.304 53.931zM377.899 332.758c-29.312-29.355-80.384-29.355-109.739 0-14.677 14.677-22.741 34.176-22.741 54.827 0 20.736 8.064 40.149 22.827 54.912 14.592 14.677 34.091 22.741 54.784 22.741s40.192-8.064 55.68-23.509l56.363-54.187-57.173-54.784zM755.968 332.758c-29.312-29.397-79.616-30.080-110.507 0.768l-56.363 54.187 57.131 54.827c29.355 29.355 80.469 29.355 109.781 0.085 14.677-14.763 22.741-34.176 22.741-54.912s-8.107-40.277-22.784-54.955z" />
<glyph unicode="&#xe638;" d="M469.333 85.334h-170.667c-23.595 0-42.667-19.072-42.667-42.667s19.072-42.667 42.667-42.667h426.667c23.595 0 42.667 19.072 42.667 42.667s-19.072 42.667-42.667 42.667h-170.667v52.48c69.973 15.829 134.229 50.688 186.155 102.656 72.533 72.533 112.512 168.96 112.512 271.531 0 88.192-29.525 171.904-83.968 239.744l28.8 28.715c16.683 16.683 16.683 43.648 0.043 60.373-16.683 16.683-43.691 16.64-60.373 0.043l-87.552-87.424 30.208-30.208c56.405-56.405 87.509-131.456 87.509-211.243s-31.104-154.752-87.509-211.157-131.371-87.509-211.157-87.509-154.752 31.104-211.157 87.509c-16.683 16.683-43.648 16.683-60.331 0-16.683-16.64-16.683-43.648 0-60.331 72.491-72.533 168.917-112.512 271.488-112.512v-42.667zM469.333 768c70.699 0 134.699-28.672 181.035-74.965 46.293-46.336 74.965-110.336 74.965-181.035 0-70.656-28.672-134.656-74.965-180.992-46.336-46.336-110.336-75.008-181.035-75.008-70.741 0-134.699 28.672-180.992 74.965-46.293 46.336-74.923 110.336-74.923 181.035s28.629 134.699 74.923 181.035c46.293 46.293 110.251 74.965 180.992 74.965z" />
<glyph unicode="&#xe639;" d="M931.029 408.32c-3.541 5.077-87.979 125.611-204.501 208-60.416 42.795-136.619 66.347-214.528 66.347-77.867 0-154.069-23.552-214.613-66.347-116.523-82.389-200.875-202.923-204.416-208-10.155-14.635-10.155-34.048 0-48.683 3.541-5.077 87.893-125.611 204.416-208 60.544-42.752 136.747-66.304 214.613-66.304 77.909 0 154.112 23.552 214.528 66.347 116.523 82.389 200.96 202.923 204.501 208 10.197 14.592 10.197 34.048 0 48.64zM512 234.667c-82.517 0-149.333 66.987-149.333 149.333 0 82.517 66.816 149.333 149.333 149.333 82.347 0 149.333-66.816 149.333-149.333 0-82.347-66.987-149.333-149.333-149.333zM597.333 384c0-47.019-38.315-85.333-85.333-85.333-47.147 0-85.333 38.315-85.333 85.333 0 47.147 38.187 85.333 85.333 85.333 47.019 0 85.333-38.187 85.333-85.333z" />
<glyph unicode="&#xe63a;" d="M400.512 189.952l15.829-63.232c5.675-22.741 29.525-41.387 52.992-41.387h42.667c23.467 0 47.317 18.645 52.992 41.387l15.829 63.232c5.675 22.741 28.8 36.096 51.328 29.611l62.592-17.92c22.571-6.443 50.688 4.864 62.379 25.216l21.333 36.992c11.691 20.352 7.552 50.304-9.344 66.645l-46.848 45.269c-16.896 16.341-16.896 43.008 0.043 59.307l46.763 45.269c16.896 16.299 21.077 46.251 9.387 66.603l-21.376 36.992c-11.733 20.352-39.808 31.659-62.336 25.216l-62.592-17.92c-22.571-6.443-45.653 6.869-51.371 29.611l-15.787 63.147c-5.675 22.699-29.525 41.344-52.992 41.344h-42.667c-23.467 0-47.317-18.645-52.992-41.387l-15.787-63.147c-5.717-22.741-28.8-36.096-51.371-29.653l-62.592 17.92c-22.571 6.485-50.688-4.864-62.379-25.173l-21.333-36.992c-11.691-20.352-7.552-50.304 9.387-66.645l46.763-45.184c16.853-16.341 16.853-43.008 0-59.349l-46.848-45.269c-16.853-16.341-21.077-46.293-9.344-66.645l21.376-36.992c11.691-20.352 39.808-31.659 62.379-25.216l62.592 17.92c22.528 6.528 45.653-6.827 51.328-29.568zM490.667 490.667c47.104 0 85.333-38.187 85.333-85.333 0-47.104-38.229-85.333-85.333-85.333s-85.333 38.229-85.333 85.333c0 47.147 38.229 85.333 85.333 85.333z" />
<glyph unicode="&#xe63b;" d="M810.667 682.667h-67.669l-42.667 42.667c-24.704 24.704-68.053 42.667-102.997 42.667h-170.667c-34.944 0-78.293-17.963-102.997-42.667l-42.667-42.667h-67.669c-70.571 0-128-57.429-128-128v-341.333c0-70.571 57.429-128 128-128h597.333c70.571 0 128 57.429 128 128v341.333c0 70.571-57.429 128-128 128zM512 256c-82.475 0-149.333 66.901-149.333 149.333 0 82.517 66.859 149.333 149.333 149.333s149.333-66.816 149.333-149.333c0-82.432-66.859-149.333-149.333-149.333zM768 456.576c-30.677 0-55.467 24.747-55.467 55.424s24.789 55.509 55.467 55.509 55.467-24.832 55.467-55.509-24.789-55.424-55.467-55.424z" />
<glyph unicode="&#xe63c;" d="M895.445 256c0 4.48-0.171 9.003-1.664 13.483l-85.333 256c-5.803 17.451-22.059 29.184-40.448 29.184h-170.667v-85.333h139.904l71.125-213.333h-592.725l71.125 213.333h139.904v85.333h-170.667c-18.389 0-34.645-11.733-40.448-29.184l-85.333-256c-1.493-4.48-1.664-9.003-1.664-13.483-0.555 0-0.555-213.333-0.555-213.333 0-23.595 19.072-42.667 42.667-42.667h682.667c23.595 0 42.667 19.072 42.667 42.667 0 0 0 213.333-0.555 213.333zM682.667 601.43c11.051 0 22.101 4.053 30.165 12.075 16.64 16.64 16.64 43.691 0 60.331l-200.832 200.832-200.832-200.832c-16.64-16.64-16.64-43.691 0-60.331 8.064-8.064 19.115-12.075 30.165-12.075s22.101 4.011 30.165 12.075l97.835 97.835v-284.672c0-23.552 19.115-42.667 42.667-42.667s42.667 19.115 42.667 42.667v284.672l97.835-97.835c8.064-8.064 19.115-12.075 30.165-12.075z" />
<glyph unicode="&#xe63d;" d="M880 703.36c-42.667 64.939-124.373 71.253-187.605 35.157l-7.936-4.565c-1.067 0.085-2.133 0.128-3.243 0.128-44.459 0-85.76-21.803-111.104-58.411-0.512-0.64-0.981-1.237-1.451-1.92-18.347-27.52-30.848-52.736-42.88-77.184-10.88-22.016-21.333-43.093-35.157-63.275-13.867 20.267-24.32 41.387-35.243 63.403-12.075 24.363-24.533 49.579-42.837 77.056-0.427 0.683-0.896 1.28-1.408 1.877-25.301 36.651-66.645 58.453-111.061 58.453-74.539 0-135.125-60.587-135.125-135.083 0-74.539 60.629-135.168 135.125-135.168 33.067 0 64.64 12.245 89.045 33.749l27.819-51.115c-69.163-80.043-127.104-172.971-128.811-175.829-52.736-72.619 30.080-188.587 33.664-193.451 4.011-5.589 10.453-8.832 17.28-8.832 8.704 0.512 15.232 4.693 18.731 11.136l132.779 243.925 132.821-243.925c3.499-6.4 10.027-10.624 17.365-11.093 7.424-0.811 14.336 2.816 18.645 8.789 3.541 4.864 86.357 120.832 34.517 192.171l-13.781 22.229c-45.909 74.069-50.645 81.749-115.84 155.051l27.776 50.987c24.405-21.504 56.021-33.749 89.088-33.749 74.496 0 135.125 60.629 135.125 135.168 0 27.051-8.149 53.163-23.339 75.435 20.139 11.52 42.539 5.248 62.123-4.053 19.883-8.149 38.272 16.085 24.917 32.939zM298.667 554.667c-23.552 0-42.667 19.072-42.667 42.667s19.115 42.667 42.667 42.667 42.667-19.072 42.667-42.667-19.115-42.667-42.667-42.667zM490.667 409.814c-11.819 0-21.333 9.6-21.333 21.333 0 11.819 9.515 21.333 21.333 21.333s21.333-9.515 21.333-21.333c0-11.733-9.515-21.333-21.333-21.333zM682.667 554.667c-23.552 0-42.667 19.072-42.667 42.667s19.115 42.667 42.667 42.667 42.667-19.072 42.667-42.667-19.115-42.667-42.667-42.667z" />
<glyph unicode="&#xe63e;" d="M549.205 375.851h218.795v218.752c-0.341 48.427-28.629 60.075-62.848 25.813l-49.237-49.408c-43.307 33.92-96.299 52.48-152.149 52.48-66.133 0-128.384-25.771-175.104-72.576-46.891-46.592-72.661-108.928-72.661-175.061 0-66.261 25.771-128.512 72.576-175.232 46.805-46.805 109.013-72.619 175.189-72.619 66.133 0 128.384 25.813 175.189 72.661 12.629 12.672 23.808 26.496 33.28 41.173 14.805 23.083 8.107 53.76-14.933 68.48-22.997 14.763-53.675 8.064-68.437-14.933-5.675-8.832-12.459-17.067-19.968-24.747-28.117-28.075-65.451-43.52-105.131-43.52-39.68 0-77.013 15.403-105.131 43.52-28.032 28.075-43.52 65.408-43.52 105.173 0 39.68 15.445 77.013 43.52 105.003 28.117 28.075 65.451 43.563 105.131 43.563 29.355 0 57.429-8.576 81.451-24.405l-61.781-61.909c-34.261-34.219-22.613-62.208 25.771-62.208z" />
<glyph unicode="&#xe63f;" d="M713.771 756.438c-16.597 16.683-43.563 16.768-60.331 0.171-4.437-4.437-7.509-9.685-9.6-15.147-35.499-74.069-74.581-115.84-123.904-140.501-55.339-27.307-118.869-46.293-221.269-46.293-5.547 0-11.093-1.067-16.299-3.243-10.453-4.352-18.731-12.672-23.083-23.083-4.309-10.411-4.309-22.187 0-32.597 2.176-5.248 5.291-9.984 9.259-13.909l138.368-138.368-193.579-258.133 258.133 193.579 138.325-138.325c3.925-4.011 8.661-7.083 13.909-9.259 5.205-2.176 10.752-3.328 16.299-3.328s11.093 1.152 16.299 3.328c10.453 4.352 18.773 12.587 23.083 23.083 2.176 5.163 3.285 10.752 3.285 16.256 0 102.4 18.944 165.931 46.208 220.416 24.619 49.323 66.389 88.405 140.501 123.904 5.504 2.091 10.709 5.163 15.104 9.6 16.597 16.768 16.512 43.733-0.171 60.331l-170.539 171.52z" />
<glyph unicode="&#xe640;" d="M362.667 469.334c0-31.232 7.083-60.757 19.157-87.509l-168.491-168.491c0 0 0-28.672 0-64s38.229-64 85.333-64h85.333v85.333h85.333v85.333c0 0 99.371 0 106.667 0 117.845 0 213.333 95.488 213.333 213.333s-95.488 213.333-213.333 213.333-213.333-95.488-213.333-213.333zM576 384c-47.104 0-85.333 38.229-85.333 85.333 0 47.147 38.229 85.419 85.333 85.419 47.147 0 85.333-38.229 85.333-85.419 0-47.104-38.187-85.333-85.333-85.333z" />
<glyph unicode="&#xe641;" d="M590.464 190.934c-0.256-0.085-23.851-7.936-44.331-7.936-11.307 0-15.872 2.347-17.323 3.371-7.168 4.992-20.48 14.336 2.304 59.733l42.667 85.077c25.301 50.517 29.056 99.371 10.453 137.6-15.189 31.275-44.331 52.736-81.92 60.416-13.525 2.773-27.264 4.139-40.875 4.139-78.891 0-132.011-46.080-134.229-48.043-7.637-6.741-9.429-17.92-4.352-26.709 5.12-8.789 15.659-12.8 25.387-9.472 0.213 0.085 23.851 7.979 44.331 7.979 11.221 0 15.744-2.347 17.152-3.328 7.211-5.035 20.565-14.507-2.176-59.819l-42.667-85.12c-25.344-50.56-29.056-99.413-10.453-137.6 15.189-31.275 44.288-52.736 81.963-60.416 13.397-2.688 27.136-4.139 40.704-4.139 78.933 0 132.096 46.080 134.315 48.043 7.637 6.699 9.429 17.92 4.352 26.709-5.12 8.747-15.744 12.672-25.301 9.515zM661.333 682.624c0-58.91-47.756-106.667-106.667-106.667s-106.667 47.756-106.667 106.667c0 58.91 47.756 106.667 106.667 106.667 58.91 0 106.667-47.756 106.667-106.667z" />
<glyph unicode="&#xe642;" d="M554.667 192c-105.856 0-192 86.144-192 192 0 23.595-19.072 42.667-42.667 42.667s-42.667-19.072-42.667-42.667c0-152.917 124.416-277.333 277.333-277.333s277.333 124.416 277.333 277.333-124.416 277.333-277.333 277.333c-23.595 0-42.667-19.072-42.667-42.667s19.072-42.667 42.667-42.667c105.856 0 192-86.144 192-192s-86.144-192-192-192zM454.656 768c23.552 0 42.667-19.115 42.667-42.667s-19.115-42.667-42.667-42.667h-138.368l247.509-247.424c16.683-16.683 16.683-43.733 0.043-60.373-8.064-8.021-18.773-12.459-30.208-12.459s-22.144 4.437-30.165 12.416l-247.467 247.552v-138.368c0-23.552-19.115-42.667-42.667-42.667s-42.667 19.115-42.667 42.667v283.989h283.989z" />
<glyph unicode="&#xe643;" d="M712.832 622.763c-8.064 8.021-19.115 12.075-30.165 12.075s-22.101-4.053-30.165-12.075l-97.835-97.835v285.739c0 23.552-19.115 42.667-42.667 42.667s-42.667-19.115-42.667-42.667v-285.739l-97.835 97.835c-8.064 8.021-18.773 12.501-30.165 12.501s-22.101-4.48-30.165-12.501c-16.64-16.64-16.64-43.691 0-60.331l200.832-199.765 200.917 199.851c16.555 16.512 16.555 43.605-0.085 60.245zM895.445 256c0 4.48-0.171 9.003-1.664 13.483l-85.333 256c-5.803 17.451-22.059 29.184-40.448 29.184h-9.344c-4.011-8.021-8.96-15.701-15.659-22.4l-63.232-62.933h57.515l71.125-213.333h-592.768l71.125 213.333h57.515l-63.275 62.933c-6.699 6.699-11.691 14.379-15.659 22.4h-9.344c-18.389 0-34.645-11.733-40.448-29.184l-85.333-256c-1.493-4.48-1.664-9.003-1.664-13.483-0.555 0-0.555-213.333-0.555-213.333 0-23.595 19.072-42.667 42.667-42.667h682.667c23.595 0 42.667 19.072 42.667 42.667 0 0 0 213.333-0.555 213.333z" />
<glyph unicode="&#xe644;" d="M554.667 768c-164.651 0-298.667-134.016-298.667-298.667 0-32.555 5.419-63.787 15.104-93.141l-53.76-53.845-43.008-44.587c-23.979-23.765-38.016-57.387-38.016-93.227 0-73.685 59.904-133.589 133.547-133.589 32.299 0 64.171 11.861 89.771 33.451l2.731 2.347 2.603 2.603 96.512 96.384c29.355-9.643 60.629-15.061 93.184-15.061 164.651 0 298.667 134.016 298.667 298.667s-134.016 298.667-298.667 298.667zM554.667 256c-117.632 0-213.333 95.701-213.333 213.333s95.701 213.333 213.333 213.333 213.333-95.701 213.333-213.333-95.701-213.333-213.333-213.333zM554.667 640c-94.080 0-170.667-76.544-170.667-170.667s76.587-170.667 170.667-170.667 170.667 76.544 170.667 170.667-76.587 170.667-170.667 170.667zM554.667 341.334c-70.656 0-128 57.344-128 128s57.344 128 128 128 128-57.344 128-128-57.344-128-128-128z" />
<glyph unicode="&#xe645;" d="M554.667 469.334h-213.333c-11.776 0-21.333-9.557-21.333-21.333s9.557-21.333 21.333-21.333h213.333c11.776 0 21.333 9.557 21.333 21.333s-9.557 21.333-21.333 21.333zM826.923 257.878l-40.491 42.069-54.869 54.912c9.685 29.355 15.104 60.587 15.104 93.141 0 164.651-133.973 298.667-298.667 298.667s-298.667-134.016-298.667-298.667 133.973-298.667 298.667-298.667c32.555 0 63.829 5.419 93.184 15.104l99.072-98.986 2.773-2.347c25.643-21.589 57.515-33.451 89.771-33.451 73.643 0 133.547 59.904 133.547 133.589 0 35.84-13.995 69.461-39.424 94.635zM234.667 448c0 117.632 95.701 213.333 213.333 213.333s213.333-95.701 213.333-213.333-95.701-213.333-213.333-213.333-213.333 95.701-213.333 213.333z" />
<glyph unicode="&#xe646;" d="M554.667 469.334h-85.333v85.333c0 11.776-9.557 21.333-21.333 21.333s-21.333-9.557-21.333-21.333v-85.333h-85.333c-11.776 0-21.333-9.557-21.333-21.333s9.557-21.333 21.333-21.333h85.333v-85.333c0-11.776 9.557-21.333 21.333-21.333s21.333 9.557 21.333 21.333v85.333h85.333c11.776 0 21.333 9.557 21.333 21.333s-9.557 21.333-21.333 21.333zM786.432 299.947l-54.827 54.912c9.685 29.355 15.104 60.587 15.104 93.141 0 164.651-134.016 298.667-298.667 298.667s-298.667-134.016-298.667-298.667 134.016-298.667 298.667-298.667c32.555 0 63.829 5.419 93.184 15.104l99.115-98.986 2.731-2.347c25.643-21.589 57.515-33.451 89.771-33.451 73.643 0 133.547 59.904 133.547 133.589 0 35.84-13.995 69.461-39.424 94.635l-40.533 42.069zM234.667 448c0 117.632 95.701 213.333 213.333 213.333s213.333-95.701 213.333-213.333-95.701-213.333-213.333-213.333-213.333 95.701-213.333 213.333z" />
<glyph unicode="&#xe647;" d="M170.667 170.667c-23.552 0-42.667 19.115-42.667 42.667v272.299l-23.595-11.776c-21.12-10.581-46.72-1.963-57.259 19.072-10.539 21.077-1.963 46.677 19.115 57.259l85.333 42.667c13.227 6.613 28.928 5.931 41.515-1.877 12.544-7.808 20.224-21.504 20.224-36.309v-341.333c0-23.552-19.115-42.667-42.667-42.667zM554.667 170.667h-213.333c-17.237 0-32.811 10.411-39.424 26.325-6.613 15.957-2.944 34.304 9.259 46.507l170.667 170.667c10.837 10.837 16.811 25.216 16.811 40.533 0 15.275-5.973 29.653-16.811 40.491-21.675 21.675-59.307 21.675-81.067-0.043-10.795-10.752-16.768-25.131-16.768-40.448 0-23.552-19.115-42.667-42.667-42.667s-42.667 19.115-42.667 42.667c0 38.144 14.848 73.941 41.813 100.864 53.973 53.888 147.797 53.888 201.685-0.043 26.965-26.923 41.771-62.763 41.771-100.821 0-38.101-14.848-73.941-41.771-100.864l-97.835-97.835h110.336c23.552 0 42.667-19.115 42.667-42.667s-19.115-42.667-42.667-42.667zM894.080 410.582c14.421 19.499 23.253 43.349 23.253 69.419 0 64.725-52.651 117.333-117.333 117.333-43.989 0-83.883-24.277-104.107-63.317-10.837-20.907-2.688-46.677 18.261-57.515 20.907-10.837 46.677-2.645 57.515 18.261 5.461 10.624 16.341 17.237 28.331 17.237 17.664 0 32-14.336 32-32s-14.336-32-32-32c-23.552 0-42.667-19.115-42.667-42.667s19.115-42.667 42.667-42.667c29.397 0 53.333-23.936 53.333-53.333s-23.936-53.333-53.333-53.333-53.333 23.936-53.333 53.333c0 23.552-19.115 42.667-42.667 42.667s-42.667-19.115-42.667-42.667c0-76.459 62.208-138.667 138.667-138.667s138.667 62.208 138.667 138.667c0 40.064-17.323 75.904-44.587 101.248z" />
<glyph unicode="&#xe648;" d="M464.853 232.406l-170.667 341.333c-14.464 28.928-61.867 28.928-76.331 0l-170.667-341.333c-10.539-21.077-2.005-46.72 19.072-57.259 21.12-10.581 46.72-1.963 57.259 19.072l30.848 61.781h203.264l30.891-61.739c7.467-14.976 22.528-23.595 38.187-23.595 6.4 0 12.928 1.451 19.029 4.48 21.077 10.581 29.653 36.181 19.115 57.259zM197.035 341.334l58.965 117.931 58.965-117.931h-117.931zM938.667 170.667h-256c-16.171 0-30.933 9.131-38.187 23.595s-5.632 31.744 4.053 44.672l204.8 273.067h-170.667c-23.552 0-42.667 19.115-42.667 42.667s19.115 42.667 42.667 42.667h256c16.171 0 30.933-9.131 38.187-23.595s5.632-31.744-4.053-44.672l-204.8-273.067h170.667c23.552 0 42.667-19.115 42.667-42.667s-19.115-42.667-42.667-42.667zM597.333 341.334h-85.333c-23.552 0-42.667 19.115-42.667 42.667s19.115 42.667 42.667 42.667h85.333c23.552 0 42.667-19.115 42.667-42.667s-19.115-42.667-42.667-42.667z" />
<glyph unicode="&#xe649;" d="M682.667 128h-341.333c-70.571 0-128 57.429-128 128v341.333c0 70.571 57.429 128 128 128h213.333c23.595 0 42.667-19.115 42.667-42.667s-19.072-42.667-42.667-42.667h-213.333c-23.552 0-42.667-19.157-42.667-42.667v-341.333c0-23.509 19.115-42.667 42.667-42.667h341.333c23.552 0 42.667 19.157 42.667 42.667v128c0 23.552 19.072 42.667 42.667 42.667s42.667-19.115 42.667-42.667v-128c0-70.571-57.429-128-128-128zM561.749 305.792c-14.933 0-29.397 5.931-40.149 16.683l-113.835 113.792c-22.187 22.229-22.187 58.24 0 80.427 22.229 22.229 58.24 22.229 80.512 0l60.416-60.459 148.267 232.747c15.232 27.477 49.92 37.419 77.397 22.144 27.435-15.275 37.333-49.92 22.101-77.355l-184.917-298.667c-8.661-15.616-24.149-26.24-41.813-28.715-2.731-0.427-5.291-0.597-7.979-0.597z" />
<glyph unicode="&#xe64a;" d="M810.667 674.816v7.851c0 70.699-57.301 128-128 128s-128-57.301-128-128h-85.333c0 70.699-57.301 128-128 128s-128-57.301-128-128v-7.851c-49.536-17.707-85.333-64.597-85.333-120.149v-384c0-70.571 57.429-128 128-128h512c70.571 0 128 57.429 128 128v384c0 55.552-35.797 102.443-85.333 120.149zM640 682.667c0 23.552 19.072 42.667 42.667 42.667s42.667-19.115 42.667-42.667v-85.333c0-23.552-19.072-42.667-42.667-42.667s-42.667 19.115-42.667 42.667v85.333zM298.667 682.667c0 23.552 19.072 42.667 42.667 42.667s42.667-19.115 42.667-42.667v-85.333c0-23.552-19.072-42.667-42.667-42.667s-42.667 19.115-42.667 42.667v85.333zM810.667 170.667c0-23.509-19.115-42.667-42.667-42.667h-512c-23.552 0-42.667 19.157-42.667 42.667v256h597.333v-256z" />
<glyph unicode="&#xe64b;" d="M512 853.334c-212.096 0-384-171.904-384-384s171.904-384 384-384 384 171.904 384 384-171.904 384-384 384zM597.333 768c0-42.667-21.333-85.333-64-85.333s-64-42.667-64-85.333 0-128 0-128 42.667 0 42.667 128c0 23.595 19.072 42.667 42.667 42.667s42.667-19.072 42.667-42.667v-128c-23.552 0-42.667-19.115-42.667-42.667s19.115-42.667 42.667-42.667c23.595 0 42.667 19.115 42.667 42.667h42.667v85.333l42.667-42.667-42.667-42.667c0-128 0-128-85.333-170.667 0 42.667-42.667 42.667-128 42.667v85.333l-85.333 85.333v85.333c-42.667 0-42.667-42.667-42.667-42.667l-125.909 125.909c4.693 8.192 9.6 16.299 14.933 24.064l22.315 28.928c62.635 73.216 155.477 119.765 259.328 119.765 29.483 0 57.984-4.181 85.333-11.179v-31.488z" />
<glyph unicode="&#xe64c;" d="M803.456 765.483c-4.565 4.053-10.368 5.931-16.811 5.163l-469.333-53.333c-10.624-1.323-18.645-10.411-18.645-21.163v-440.149c-70.571 0-128-47.872-128-106.667s57.429-106.667 128-106.667 128 47.872 128 106.667v324.651l256 26.667v-159.317c-70.571 0-128-47.872-128-106.667s57.429-106.667 128-106.667 128 47.872 128 106.667v514.816c0 6.144-2.645 11.947-7.211 16z" />
<glyph unicode="&#xe64d;" d="M348.629 170.667c-21.845 0-43.648 8.32-60.331 25.003l-188.331 188.331 188.331 188.331c33.323 33.323 87.424 33.323 120.661 0 33.323-33.323 33.323-87.339 0-120.661l-67.627-67.669 67.627-67.669c33.323-33.323 33.323-87.339 0-120.661-16.64-16.683-38.485-25.003-60.331-25.003zM675.371 170.667c-21.845 0-43.691 8.32-60.331 25.003-33.323 33.323-33.323 87.339 0 120.661l67.627 67.669-67.627 67.669c-33.323 33.323-33.323 87.339 0 120.661 33.237 33.323 87.339 33.323 120.661 0l188.331-188.331-188.331-188.331c-16.64-16.683-38.485-25.003-60.331-25.003z" />
<glyph unicode="&#xe64e;" d="M832 406.486c0 83.115-26.368 144.939-88.149 206.677-16.683 16.64-43.648 16.64-60.331 0-16.683-16.683-16.683-43.691 0-60.373 46.037-45.995 63.147-85.632 63.147-146.304 0-62.677-24.405-121.6-68.736-165.888-42.837-42.795-88.661-64.085-146.261-67.968l53.163 53.205c16.683 16.683 16.683 43.648 0 60.331s-43.648 16.683-60.331 0l-158.165-158.165 158.165-158.165c8.32-8.32 19.243-12.501 30.165-12.501s21.845 4.181 30.165 12.501c16.683 16.683 16.683 43.648 0 60.331l-57.045 57.003c82.048 3.499 151.125 33.792 210.475 93.056 60.459 60.416 93.739 140.757 93.739 226.261zM277.333 405.334c0 62.677 24.405 121.6 68.736 165.931 43.051 43.051 89.259 64.341 147.499 68.011l-54.4-54.4c-16.683-16.683-16.683-43.648 0-60.331 8.32-8.363 19.243-12.544 30.165-12.544s21.845 4.181 30.165 12.501l158.165 158.165-158.165 158.165c-16.683 16.683-43.648 16.683-60.331 0s-16.683-43.648 0-60.331l55.936-55.936c-81.664-3.669-150.4-33.963-209.365-92.971-60.459-60.416-93.739-140.757-93.739-226.261 0-83.115 26.368-144.939 88.149-206.677 8.32-8.32 19.243-12.459 30.165-12.459s21.845 4.181 30.165 12.501c16.683 16.683 16.683 43.691 0 60.373-46.037 45.952-63.147 85.589-63.147 146.261z" />
<glyph unicode="&#xe64f;" d="M170.667 554.667h149.333c31.403 0 59.435-16.683 78.976-42.709 13.867 25.771 31.104 49.621 50.816 70.912-34.261 35.115-79.616 57.131-129.792 57.131h-149.333c-23.595 0-42.667-19.115-42.667-42.667s19.072-42.667 42.667-42.667zM498.56 421.931c23.509 70.699 96.256 132.736 155.691 132.736h78.421l-55.168-55.168c-16.683-16.683-16.683-43.648 0-60.331 8.32-8.32 19.243-12.501 30.165-12.501s21.845 4.181 30.165 12.501l158.165 158.165-158.165 158.165c-16.683 16.683-43.648 16.683-60.331 0s-16.683-43.648 0-60.331l55.168-55.168h-78.421c-97.024 0-201.003-83.925-236.672-191.104l-20.139-60.203c-27.349-82.176-88.405-132.693-120.107-132.693h-106.667c-23.595 0-42.667-19.115-42.667-42.667s19.072-42.667 42.667-42.667h106.667c78.379 0 164.821 82.133 201.088 191.104l20.139 60.16zM677.504 371.499c-16.683-16.683-16.683-43.648 0-60.331l55.168-55.168h-99.755c-54.101 0-99.413 38.016-114.816 89.941-10.923-32-26.752-63.957-46.507-93.227 37.803-49.579 95.701-82.048 161.323-82.048h99.755l-55.168-55.168c-16.683-16.683-16.683-43.648 0-60.331 8.32-8.32 19.243-12.501 30.165-12.501s21.845 4.181 30.165 12.501l158.165 158.165-158.165 158.165c-16.683 16.683-43.648 16.683-60.331 0z" />
<glyph unicode="&#xe650;" d="M704 640h-89.003l55.168 55.168c16.683 16.683 16.683 43.648 0 60.331s-43.648 16.683-60.331 0l-158.165-158.165 158.165-158.165c8.32-8.32 19.243-12.501 30.165-12.501s21.845 4.181 30.165 12.501c16.683 16.683 16.683 43.648 0 60.331l-55.168 55.168h89.003c58.837 0 106.667-57.429 106.667-128s-57.429-128-128-128v0c-23.595 0-42.667-19.115-42.667-42.667s19.072-42.667 42.667-42.667v0c117.632 0 213.333 95.701 213.333 213.333s-86.144 213.333-192 213.333zM353.835 414.166c-16.683-16.683-16.683-43.648 0-60.331l55.168-55.168h-89.003c-58.837 0-106.667 57.429-106.667 128s57.429 128 128 128v0c23.595 0 42.667 19.115 42.667 42.667s-19.072 42.667-42.667 42.667v0c-117.632 0-213.333-95.701-213.333-213.333s86.144-213.333 192-213.333h89.003l-55.168-55.168c-16.683-16.683-16.683-43.648 0-60.331 8.32-8.32 19.243-12.501 30.165-12.501s21.845 4.181 30.165 12.501l158.165 158.165-158.165 158.165c-16.683 16.683-43.648 16.683-60.331 0z" />
<glyph unicode="&#xe651;" d="M261.163 384c-23.595 0-42.667-19.115-42.667-42.667s19.072-42.667 42.667-42.667h62.507l-140.501-140.501c-16.683-16.683-16.683-43.648 0-60.331 8.32-8.32 19.243-12.501 30.165-12.501s21.845 4.181 30.165 12.501l145.664 145.664v-72.832c0-23.552 19.072-42.667 42.667-42.667s37.504 19.115 37.504 42.667v213.333h-208.171zM298.667 469.334c23.552 0 42.667 19.115 42.667 42.667v85.333h85.333c23.595 0 42.667 19.115 42.667 42.667s-19.072 42.667-42.667 42.667h-170.624l-0.043-170.667c0-23.552 19.072-42.667 42.667-42.667zM725.333 384c-23.595 0-42.667-19.115-42.667-42.667v-85.333h-85.333c-23.595 0-42.667-19.115-42.667-42.667s19.072-42.667 42.667-42.667h170.667v170.667c0 23.552-19.072 42.667-42.667 42.667zM780.501 755.499l-140.501-140.501v67.669c0 23.552-19.072 42.667-42.667 42.667s-42.667-19.115-42.667-42.667v-213.333h213.333c23.552 0 42.667 19.115 42.667 42.667s-19.072 42.667-42.667 42.667h-67.669l140.501 140.459c16.683 16.683 16.683 43.648 0 60.331s-43.648 16.725-60.331 0.043z" />
<glyph unicode="&#xe652;" d="M640 768c-23.595 0-42.667-19.115-42.667-42.667s19.072-42.667 42.667-42.667h67.669l-140.501-140.501c-16.683-16.683-16.683-43.648 0-60.331 8.32-8.32 19.243-12.501 30.165-12.501s21.845 4.181 30.165 12.501l140.501 140.501v-67.669c0-23.552 19.072-42.667 42.667-42.667s42.667 19.115 42.667 42.667v213.333h-213.333zM396.501 371.499l-140.501-140.501v67.669c0 23.552-19.072 42.667-42.667 42.667s-42.667-19.115-42.667-42.667v-213.291h42.496c0.341 0 170.837-0.043 170.837-0.043 23.552 0 42.667 19.115 42.667 42.667s-19.072 42.667-42.667 42.667h-67.669l140.501 140.459c16.683 16.683 16.683 43.648 0 60.331s-43.648 16.725-60.331 0.043zM298.667 426.667c23.552 0 42.667 19.115 42.667 42.667v128h128c23.595 0 42.667 19.115 42.667 42.667s-19.072 42.667-42.667 42.667h-213.291l-0.043-213.333c0-23.552 19.072-42.667 42.667-42.667zM725.333 426.667c-23.595 0-42.667-19.115-42.667-42.667v-128h-128c-23.595 0-42.667-19.115-42.667-42.667s19.072-42.667 42.667-42.667h213.333v213.333c0 23.552-19.072 42.667-42.667 42.667z" />
<glyph unicode="&#xe653;" d="M704 597.334h-89.003l55.168 55.168c16.683 16.683 16.683 43.648 0 60.331s-43.648 16.683-60.331 0l-158.165-158.165 158.165-158.165c8.32-8.32 19.243-12.501 30.165-12.501s21.845 4.181 30.165 12.501c16.683 16.683 16.683 43.648 0 60.331l-55.168 55.168h89.003c58.837 0 106.667-57.429 106.667-128s-57.429-128-128-128h-341.333c-70.571 0-128 57.429-128 128s57.429 128 128 128v0c23.595 0 42.667 19.115 42.667 42.667s-19.072 42.667-42.667 42.667v0c-117.632 0-213.333-95.701-213.333-213.333s95.701-213.333 213.333-213.333h341.333c117.632 0 213.333 95.701 213.333 213.333s-86.144 213.333-192 213.333z" />
<glyph unicode="&#xe654;" d="M768 362.667c-23.595 0-42.667-19.072-42.667-42.667 0-102.997-73.429-189.184-170.667-208.981v315.648h170.667c23.595 0 42.667 19.072 42.667 42.667s-19.072 42.667-42.667 42.667h-170.667v50.517c49.579 17.621 85.333 64.469 85.333 120.149 0 70.699-57.301 128-128 128s-128-57.301-128-128c0-55.68 35.755-102.528 85.333-120.149v-50.517h-170.667c-23.595 0-42.667-19.072-42.667-42.667s19.072-42.667 42.667-42.667h170.667v-315.648c-97.237 19.84-170.667 105.984-170.667 208.981 0 23.595-19.072 42.667-42.667 42.667s-42.667-19.072-42.667-42.667c0-164.651 134.016-298.667 298.667-298.667s298.667 134.016 298.667 298.667c0 23.595-19.072 42.667-42.667 42.667zM512 725.334c23.509 0 42.667-19.157 42.667-42.667s-19.157-42.667-42.667-42.667-42.667 19.157-42.667 42.667 19.157 42.667 42.667 42.667z" />
<glyph unicode="&#xe655;" d="M865.493 634.923c-2.133 7.168-7.851 12.757-15.104 14.677-7.339 2.005-15.019-0.128-20.352-5.376l-111.616-109.099-81.664 16.341-16.256 81.365 112.853 110.293c5.376 5.248 7.595 12.928 5.845 20.224s-7.168 13.141-14.336 15.403c-22.656 7.083-43.435 10.581-63.531 10.581-117.632 0-213.333-95.701-213.333-213.333 0-13.781 1.621-27.733 5.035-43.093-23.979-19.755-46.763-36.779-72.576-56.064-36.907-27.563-78.72-58.752-135.765-106.923-33.493-29.269-52.693-70.784-52.693-113.92 0-82.347 66.987-149.333 149.333-149.333 43.563 0 85.035 19.456 113.579 53.333 49.024 57.472 80.683 99.669 108.544 136.917 18.859 25.216 35.499 47.403 54.741 70.827 15.36-3.456 29.355-5.077 43.136-5.077 117.632 0 213.333 95.701 213.333 213.333 0 18.645-2.901 37.333-9.173 58.923zM341.333 213.334c-23.595 0-42.667 19.072-42.667 42.667s19.072 42.667 42.667 42.667 42.667-19.072 42.667-42.667-19.072-42.667-42.667-42.667z" />
<glyph unicode="&#xe656;" d="M693.333 458.667c15.531 0 30.037-6.187 41.984-16.683 23.424-14.165 32.683 1.451 32.683 16.683v74.667c0 35.2-28.8 64-64 64h-117.333c-15.189 0-30.891 9.216-16.683 32.683 10.496 11.947 16.683 26.411 16.683 41.984 0 41.259-42.965 74.667-96 74.667s-96-33.408-96-74.667c0-12.8 4.053-24.576 10.88-35.115 21.632-28.715 5.803-39.552-10.88-39.552h-117.333c-35.2 0-64-28.8-64-64v-74.667c0-16.683 10.837-32.512 39.595-10.411 10.496 6.357 22.272 10.411 35.072 10.411 41.216 0 74.667-43.008 74.667-96s-33.451-96-74.667-96c-15.531 0-30.037 6.187-41.984 16.683-23.424 14.165-32.683-1.451-32.683-16.683v-117.333c0-35.2 28.8-64 64-64h117.333c16.683 0 32.512 10.837 10.368 39.552-6.315 10.539-10.368 22.315-10.368 35.115 0 41.259 42.965 74.667 96 74.667s96-33.408 96-74.667c0-15.573-6.187-30.037-16.683-41.984-14.208-23.467 1.493-32.683 16.683-32.683h117.333c35.2 0 64 28.8 64 64v117.333c0 16.683-10.837 32.512-39.595 10.411-10.496-6.357-22.272-10.411-35.072-10.411-41.216 0-74.667 43.008-74.667 96s33.451 96 74.667 96z" />
<glyph unicode="&#xe657;" d="M490.667 146.219c-74.069 0-143.701 28.843-196.096 81.195-52.352 52.395-81.237 122.027-81.237 196.139s28.885 143.744 81.237 196.139c16.683 16.683 43.648 16.683 60.331 0s16.683-43.648 0-60.331c-36.267-36.309-56.235-84.523-56.235-135.808s19.968-99.541 56.235-135.808c36.267-36.267 84.437-56.192 135.765-56.192s99.499 19.968 135.765 56.192c36.309 36.267 56.235 84.48 56.235 135.808s-19.968 99.541-56.235 135.808c-16.683 16.683-16.683 43.648 0 60.331s43.648 16.683 60.331 0c52.352-52.437 81.237-122.069 81.237-196.139s-28.885-143.744-81.237-196.139c-52.395-52.352-122.027-81.195-196.096-81.195zM490.667 469.334c-23.595 0-42.667 19.115-42.667 42.667v213.333c0 23.552 19.072 42.667 42.667 42.667s42.667-19.115 42.667-42.667v-213.333c0-23.552-19.072-42.667-42.667-42.667z" />
<glyph unicode="&#xe658;" d="M853.163 362.368l-255.829 146.176v254.123c0 35.285-28.715 64-64 64s-64-28.715-64-64v-254.123l-255.829-146.176c-18.731-10.709-26.539-33.707-18.176-53.589 8.405-19.883 30.336-30.421 51.029-24.448l222.976 63.659v-189.909l-69.333-55.467c-16.512-13.227-20.821-36.523-10.197-54.784s33.109-25.941 52.693-18.133l90.837 36.352 90.837-36.352c5.163-2.048 10.539-3.029 15.829-3.029 14.805 0 29.056 7.723 36.864 21.205 10.624 18.261 6.272 41.6-10.197 54.784l-69.333 55.467v189.909l222.976-63.701c3.883-1.109 7.851-1.664 11.691-1.664 16.811 0 32.512 9.941 39.339 26.112 8.363 19.883 0.597 42.88-18.176 53.589zM533.333 752c-11.776 0-21.333 9.557-21.333 21.333s9.557 21.333 21.333 21.333 21.333-9.557 21.333-21.333-9.557-21.333-21.333-21.333z" />
<glyph unicode="&#xe659;" d="M798.165 574.507c-16.683 16.683-43.648 16.683-60.331 0-53.931-53.931-141.696-53.931-195.669 0-87.253 87.211-229.163 87.125-316.331 0-16.683-16.683-16.683-43.648 0-60.331s43.648-16.683 60.331 0c15.957 15.957 34.987 26.624 55.168 33.109v-333.952c0-23.595 19.072-42.667 42.667-42.667s42.667 19.072 42.667 42.667v333.909c20.139-6.485 39.211-17.109 55.168-33.067 32.768-32.725 73.173-53.12 115.499-61.312v-239.531c0-23.595 19.072-42.667 42.667-42.667s42.667 19.072 42.667 42.667v239.531c42.325 8.149 82.731 28.587 115.499 61.312 16.683 16.64 16.683 43.648 0 60.331z" />
<glyph unicode="&#xe65a;" d="M570.624 636.459l158.336 158.293-18.688 18.517c-24.149 24.149-66.347 24.149-90.496 0l-67.669-67.669c-12.117-12.117-18.773-28.203-18.773-45.269s6.656-33.152 18.688-45.227l18.603-18.645zM283.563 386.603c-24.149 24.149-66.347 24.149-90.496 0l-67.669-67.669c-12.075-12.117-18.731-28.203-18.731-45.269s6.656-33.152 18.816-45.312l18.645-18.432 157.995 157.995-18.56 18.688zM786.645 736.896l-15.104 15.104-158.208-158.208 27.733-27.691c4.053-4.053 6.229-9.387 6.229-15.104s-2.219-11.051-6.229-15.104l-238.336-238.336c-8.064-8.021-22.101-8.064-30.165 0l-27.733 27.733-157.952-158.293 15.104-15.104c11.093-11.093 53.163-47.147 130.389-47.147 68.949 0 181.589 30.379 326.4 175.147 288.981 289.067 134.741 450.133 127.872 457.003z" />
<glyph unicode="&#xe65b;" d="M512 256c94.123 0 170.667 76.587 170.667 170.667v256c0 94.123-76.544 170.667-170.667 170.667s-170.667-76.544-170.667-170.667v-256c0-94.080 76.544-170.667 170.667-170.667zM810.667 426.667v85.333c0 23.552-19.072 42.667-42.667 42.667s-42.667-19.115-42.667-42.667v-85.333c0-117.632-95.701-213.333-213.333-213.333s-213.333 95.701-213.333 213.333v85.333c0 23.552-19.072 42.667-42.667 42.667s-42.667-19.115-42.667-42.667v-85.333c0-150.187 111.488-274.432 256-295.253v-46.080h-128c-23.595 0-42.667-19.072-42.667-42.667s19.072-42.667 42.667-42.667h341.333c23.595 0 42.667 19.072 42.667 42.667s-19.072 42.667-42.667 42.667h-128v46.080c144.512 20.821 256 145.067 256 295.253z" />
<glyph unicode="&#xe65c;" d="M435.2 665.6c-20.821 0-39.723-8.405-53.461-21.845-101.589-98.773-253.739-246.997-253.739-246.997s152.149-148.181 253.611-246.997c13.909-13.44 32.768-21.76 53.589-21.76 42.411 0 76.8 34.347 76.8 76.757v384c0 42.411-34.389 76.843-76.8 76.843zM819.2 665.6c-20.821 0-39.723-8.405-53.461-21.845-101.589-98.773-253.739-246.997-253.739-246.997s152.149-148.181 253.611-246.997c13.909-13.44 32.768-21.76 53.589-21.76 42.411 0 76.8 34.347 76.8 76.757v384c0 42.411-34.389 76.843-76.8 76.843z" />
<glyph unicode="&#xe65d;" d="M784.341 754.432c-15.957 6.613-34.304 2.944-46.507-9.259-53.931-53.888-141.696-53.931-195.669 0-87.253 87.168-229.12 87.168-316.331 0-8.021-7.979-12.501-18.859-12.501-30.165v-554.667c0-23.552 19.072-42.667 42.667-42.667s42.667 19.115 42.667 42.667v194.261c54.229 42.539 133.163 38.869 183.168-11.093 87.253-87.168 229.163-87.168 316.331 0 8.021 8.021 12.501 18.859 12.501 30.165v341.333c0 17.28-10.411 32.811-26.325 39.424z" />
<glyph unicode="&#xe65e;" d="M512 642.816l42.667 125.184c3.072 9.088 3.328 19.285 0 29.099-8.021 23.595-33.664 36.181-57.216 28.117-23.595-8.064-36.139-33.621-28.117-57.216l42.667-125.184zM170.667 469.334c-9.088 3.072-19.285 3.328-29.099 0-23.595-8.021-36.181-33.664-28.117-57.216 8.064-23.595 33.621-36.139 57.216-28.117l125.184 42.667-125.184 42.667zM512 210.518l-42.667-125.184c-3.072-9.088-3.328-19.285 0-29.099 8.021-23.595 33.664-36.181 57.216-28.117 23.595 8.064 36.139 33.621 28.117 57.216l-42.667 125.184zM910.549 441.302c-8.021 23.595-33.621 36.181-57.216 28.117l-125.184-42.667 125.184-42.667c9.088-3.072 19.285-3.328 29.099 0 23.552 8.021 36.139 33.664 28.117 57.216zM240.469 637.867l118.656-58.325-58.325 118.656c-4.267 8.619-11.307 16-20.565 20.565-22.357 11.008-49.365 1.792-60.373-20.565-10.965-22.315-1.749-49.365 20.608-60.331zM219.861 194.902c-10.965-22.315-1.749-49.323 20.565-60.331 22.315-10.965 49.365-1.749 60.331 20.565l58.325 118.656-118.656-58.325c-8.576-4.224-15.957-11.221-20.565-20.565zM783.488 215.51l-118.656 58.325 58.325-118.656c4.267-8.619 11.264-16 20.565-20.565 22.315-10.965 49.323-1.749 60.331 20.565 11.008 22.315 1.792 49.365-20.565 60.331zM804.011 658.518c11.008 22.357 1.792 49.365-20.523 60.373-22.315 10.965-49.365 1.749-60.331-20.565l-58.411-118.741 118.699 58.368c8.619 4.267 16 11.264 20.565 20.565zM512 618.667c-105.856 0-192-86.144-192-192s86.144-192 192-192 192 86.144 192 192-86.144 192-192 192z" />
<glyph unicode="&#xe65f;" d="M640 128c-57.259 0-114.56 21.803-158.165 65.365-54.016 53.973-141.781 53.931-195.669 0-16.683-16.683-43.648-16.683-60.331 0s-16.683 43.648 0 60.331c87.168 87.168 229.077 87.168 316.331 0 53.973-53.931 141.739-53.888 195.669 0 16.683 16.683 43.648 16.683 60.331 0s16.683-43.648 0-60.331c-43.563-43.563-100.864-65.365-158.165-65.365zM640 298.667c-57.259 0-114.56 21.803-158.165 65.365-54.016 53.973-141.781 53.931-195.669 0-16.683-16.683-43.648-16.683-60.331 0s-16.683 43.648 0 60.331c87.168 87.168 229.077 87.168 316.331 0 53.973-53.931 141.739-53.888 195.669 0 16.683 16.683 43.648 16.683 60.331 0s16.683-43.648 0-60.331c-43.563-43.563-100.864-65.365-158.165-65.365zM640 469.334c-57.259 0-114.56 21.803-158.165 65.365-54.016 53.973-141.781 53.931-195.669 0-16.683-16.683-43.648-16.683-60.331 0s-16.683 43.648 0 60.331c87.168 87.125 229.077 87.211 316.331 0 53.973-53.931 141.739-53.888 195.669 0 16.683 16.683 43.648 16.683 60.331 0s16.683-43.648 0-60.331c-43.563-43.563-100.864-65.365-158.165-65.365z" />
<glyph unicode="&#xe660;" d="M805.973 639.488c34.475 21.163 57.301 50.048 68.48 86.784-33.536-17.792-66.944-29.995-100.309-36.736-29.995 32.256-67.968 48.64-113.493 48.64-44.501 0-82.091-15.616-112.768-45.995-30.507-30.592-45.909-67.755-45.909-111.147 0-13.184 1.664-24.96 4.992-34.944-131.243 4.48-239.872 58.923-325.461 163.712-14.507-25.643-21.76-51.755-21.76-78.763 0-55.509 23.424-99.499 70.187-131.797-26.667 2.261-50.176 9.003-70.187 20.053 0-39.637 11.648-72.747 34.987-101.888 23.424-28.843 53.504-47.232 90.24-55.083-13.312-3.413-27.349-5.035-41.771-5.035-13.312 0-22.741 1.109-28.331 3.541 9.813-32.299 28.331-58.496 55.083-78.549 26.667-20.139 57.344-30.763 91.819-31.701-56.832-44.587-121.813-66.645-195.328-66.645-18.005 0-30.763 0.256-38.485 1.621 72.405-47.019 153.003-70.357 242.176-70.357 91.264 0 171.904 23.125 242.091 69.376 70.187 45.995 121.984 102.741 155.264 169.557 33.451 66.731 50.005 136.192 50.005 208.725v19.968c32.341 24.32 58.496 51.712 78.507 81.963-29.013-12.501-59.008-20.992-90.027-25.301z" />
<glyph unicode="&#xe661;" d="M554.667 512h128v-128h-128v-298.667h-128v298.667h-128v128h128v53.547c0 50.731 15.957 114.816 47.701 149.845 31.744 35.115 71.381 52.608 118.869 52.608h89.429v-128h-89.6c-21.248 0-38.4-17.152-38.4-38.357v-89.643z" />
<glyph unicode="&#xe662;" d="M512 810.667c-211.712 0-384-172.245-384-384s172.288-384 384-384 384 172.245 384 384-172.288 384-384 384zM809.045 457.6c-75.307 12.331-150.784 7.979-222.080-11.179-7.68 18.603-16.341 36.651-25.173 54.741 60.672 34.56 114.56 81.579 158.421 139.179 48.768-47.488 81.451-111.403 88.832-182.741zM688.213 667.264c-40.064-53.035-89.6-96.384-145.109-128.384-33.365 61.653-73.771 119.467-119.765 173.056 28.032 8.704 57.813 13.397 88.661 13.397 65.92 0 126.763-21.76 176.213-58.069zM381.739 694.998c47.744-53.973 89.301-112.853 123.392-175.659-87.936-40.832-187.563-55.211-286.592-38.357 17.408 94.379 79.36 173.141 163.2 214.016zM213.333 426.667c0 4.267 0.469 8.32 0.64 12.544 28.843-4.736 57.728-8.021 86.357-8.021 77.952 0 153.899 18.176 223.445 50.645 7.765-15.915 15.573-31.744 22.4-48.085-103.637-36.949-195.541-106.069-260.309-201.643-45.056 52.352-72.533 120.235-72.533 194.56zM315.435 202.368c61.013 90.837 147.84 156.715 245.931 191.445 29.141-79.104 47.915-161.92 55.125-246.571-32.555-12.245-67.712-19.243-104.491-19.243-75.307 0-144 28.203-196.565 74.368zM657.365 166.016c-8.363 82.432-26.923 163.072-55.168 240.299 66.731 17.237 137.472 20.736 207.829 8.107-4.352-106.752-64.683-199.168-152.661-248.405z" />
<glyph unicode="&#xe663;" d="M682.667 682.667h-341.333c-46.933 0-85.333-38.4-85.333-85.333v-341.333c0-46.933 38.4-85.333 85.333-85.333h341.333c46.933 0 85.333 38.4 85.333 85.333v341.333c0 46.933-38.4 85.333-85.333 85.333z" />
<glyph unicode="&#xe664;" d="M768 426.667c0 70.699-28.672 134.699-74.965 181.035-46.336 46.293-110.336 74.965-181.035 74.965-70.656 0-134.656-28.672-180.992-74.965-46.336-46.336-75.008-110.336-75.008-181.035 0-70.656 28.672-134.656 75.008-180.992s110.336-75.008 180.992-75.008c70.699 0 134.699 28.672 181.035 75.008 46.293 46.336 74.965 110.336 74.965 180.992z" />
<glyph unicode="&#xe665;" d="M443.563 152.192c112.683 109.824 281.771 274.475 281.771 274.475s-169.088 164.651-281.771 274.475c-15.488 14.891-36.395 24.192-59.563 24.192-47.104 0-85.333-38.229-85.333-85.333v-426.667c0-47.104 38.229-85.333 85.333-85.333 23.168 0 44.075 9.301 59.563 24.192z" />
<glyph unicode="&#xe666;" d="M642.261 643.755c-13.824 13.397-32.64 21.845-53.461 21.845-42.411 0-76.8-34.432-76.8-76.843v-384c0-42.411 34.389-76.757 76.8-76.757 20.821 0 39.68 8.32 53.461 21.845 101.589 98.731 253.739 246.912 253.739 246.912s-152.149 148.224-253.739 246.997zM258.261 643.755c-13.824 13.397-32.64 21.845-53.461 21.845-42.411 0-76.8-34.432-76.8-76.843v-384c0-42.411 34.389-76.757 76.8-76.757 20.821 0 39.68 8.32 53.461 21.845 101.589 98.731 253.739 246.912 253.739 246.912s-152.149 148.224-253.739 246.997z" />
<glyph unicode="&#xe667;" d="M725.333 256h-426.667c-47.104 0-85.333-38.187-85.333-85.333 0-47.104 38.229-85.333 85.333-85.333h426.667c47.104 0 85.333 38.229 85.333 85.333 0 47.147-38.229 85.333-85.333 85.333zM786.475 486.23c-109.824 112.683-274.475 281.771-274.475 281.771s-164.651-169.088-274.475-281.771c-14.891-15.488-24.192-36.395-24.192-59.563 0-47.104 38.229-85.333 85.333-85.333h426.667c47.104 0 85.333 38.229 85.333 85.333 0 23.168-9.301 44.075-24.192 59.563z" />
<glyph unicode="&#xe668;" d="M807.253 564.224c-14.037-82.304-51.669-160.341-113.024-233.813-61.269-73.6-115.627-126.165-162.944-157.653-29.824-14.123-55.168-14.507-76.203-1.451-21.035 13.227-37.675 32.043-49.877 56.533-7.040 13.995-24.107 66.944-51.285 159.061-27.136 91.947-43.392 141.44-48.597 148.437-3.541 6.955-12.288 7.851-26.283 2.603-14.080-5.205-23.68-9.643-28.928-13.184-5.248-3.456-9.643-7.040-13.141-10.453l-23.637 31.445 26.283 31.573c19.285 20.992 43.776 42.965 73.557 65.707 29.867 22.784 56.064 36.779 78.848 42.112 15.829 3.413 28.971 1.195 39.424-6.656 10.539-7.851 19.285-20.651 26.283-38.144 7.040-17.451 12.331-34.603 15.744-51.157 3.541-16.725 7.040-36.437 10.581-59.179 3.456-22.784 6.997-40.32 10.496-52.565 19.243-82.347 35.029-123.563 47.317-123.563 17.493 0 45.525 36.821 84.096 110.507 17.493 33.237 18.432 60.843 2.645 82.816-15.744 21.845-40.235 22.272-73.557 1.237 5.248 33.28 20.139 62.123 44.629 86.656 43.776 47.317 92.032 64.896 144.555 52.651 54.315-10.539 75.307-51.755 63.019-123.52z" />
<glyph unicode="&#xe669;" d="M662.485 174.038v88.149c-28.544-19.115-56.32-28.587-83.285-28.587-12.715 0-26.923 4.011-42.837 11.819-9.515 6.443-15.104 13.525-16.768 21.461-4.693 9.557-7.595 30.208-7.595 62.037v140.416h128v85.333h-128v143.189h-75.605c-6.357-33.365-12.715-57.088-19.115-71.381-7.851-17.493-20.565-33.365-38.016-47.616-17.536-14.379-35.712-24.619-54.827-30.933v-78.592h59.563v-192.896c0-22.187 3.115-41.131 9.515-57.045 4.736-12.715 14.251-25.387 28.629-38.101 11.051-11.179 26.923-20.651 47.573-28.587 25.387-6.4 47.531-9.515 66.645-9.515 22.187 0 42.837 2.389 61.867 7.125 22.229 4.779 43.648 12.715 64.256 23.723z" />
<glyph unicode="&#xe66a;" d="M881.835 370.688c2.517 18.219 3.797 36.096 3.797 53.376 0 103.979-36.096 193.877-107.221 267.221-71.893 74.027-160.213 111.573-262.485 111.573-11.904 0-23.296-0.555-34.176-1.621-32.256 14.933-66.901 22.443-103.509 22.443-68.651 0-130.261-26.027-178.091-75.307-47.147-48.427-72.149-110.293-72.149-178.859 0-35.499 6.656-69.077 19.883-100.181-2.005-15.232-2.987-30.421-2.987-45.312 0-104.021 36.395-194.005 108.032-267.392 72.235-73.899 160.768-111.36 262.997-111.36 10.837 0 23.339 0.853 38.229 2.56 29.44-12.075 60.117-18.176 91.563-18.176 67.755 0 129.067 26.197 177.365 75.819 47.659 48.768 72.917 110.933 72.917 179.669 0 28.885-4.736 57.557-14.165 85.547zM661.333 283.819c-12.117-18.219-31.104-33.323-57.131-45.44-25.984-10.368-55.893-15.573-89.6-15.573-40.704 0-74.923 7.381-102.571 22.144-19.925 11.179-35.541 25.515-46.763 42.795-12.117 19.072-18.261 36.779-18.261 53.248 0 10.368 3.925 19.499 11.691 27.264 7.851 7.851 17.749 11.691 29.867 11.691 8.661 0 17.323-3.072 25.984-9.088 6.912-6.912 12.075-15.616 15.531-25.984 0.896-0.853 6.528-10.795 16.896-29.867 4.352-6.016 12.117-12.075 23.339-18.133 10.453-5.205 24.235-7.808 41.6-7.808 23.381 0 42.88 5.163 58.453 15.531 13.824 9.557 20.736 21.632 20.736 36.395 0 12.117-3.925 21.248-11.691 27.264-7.808 7.851-17.707 13.824-29.824 18.219-3.456 0.896-8.021 2.005-13.611 3.2-5.675 1.323-12.16 3.029-19.499 5.248-7.339 2.176-13.653 3.669-18.816 4.523-29.397 6.016-54.485 13.824-75.349 23.381-18.176 6.912-34.603 18.987-49.323 36.309-12.075 16.469-18.176 35.968-18.176 58.453 0 22.528 6.485 42.411 19.499 59.733 12.971 17.323 31.573 30.336 55.808 38.955 24.277 9.557 52.011 14.251 83.157 14.251 23.381 0 45.483-2.987 66.219-9.088 19.968-6.912 35.968-15.147 48.085-24.704 11.221-10.368 20.352-20.736 27.264-31.104 6.059-13.824 9.131-25.131 9.131-33.749 0-11.307-3.925-20.821-11.733-28.544-8.576-8.704-18.603-13.056-29.824-13.056-9.515 0-17.749 2.603-24.661 7.851-4.352 4.309-9.941 12.075-16.896 23.339-5.163 12.117-13.397 22.912-24.619 32.512-10.368 7.765-26.411 11.648-48.085 11.648-21.632 0-38.059-4.352-49.323-13.013-12.117-7.851-18.176-16.896-18.176-27.264 0-6.912 2.133-12.629 6.485-16.896 4.352-6.101 9.899-10.88 16.896-14.336 4.352-2.56 11.691-5.632 22.101-9.045 2.603-0.896 8.405-2.432 17.493-4.523 9.088-2.261 16.683-3.712 22.741-4.565 12.075-2.603 32.896-8.192 62.336-16.896 17.323-6.016 33.749-13.781 49.323-23.381 14.763-10.325 25.557-22.059 32.512-34.987 6.912-15.573 10.325-32.896 10.325-51.925-0.085-23.381-6.571-45.056-19.541-64.981z" />
<glyph unicode="&#xe66b;" d="M532.736 735.104c-180.48 0-271.488-129.408-271.488-237.312 0-65.408 24.789-123.477 77.781-145.109 8.747-3.584 16.512-0.171 19.029 9.429 1.749 6.699 5.888 23.595 7.765 30.592 2.603 9.429 1.579 12.8-5.419 21.12-15.317 18.005-25.088 41.472-25.088 74.539 0 96 71.808 181.931 187.051 181.931 102.059 0 158.123-62.421 158.123-145.579 0-109.568-48.512-201.984-120.491-201.984-39.765 0-69.504 32.853-59.947 73.173 11.435 48.213 33.536 100.139 33.536 134.827 0 31.104-16.725 57.003-51.2 57.003-40.619 0-73.301-41.984-73.301-98.304 0-35.883 12.203-60.117 12.203-60.117s-41.643-176.171-48.896-207.019c-14.507-61.44-2.176-136.789-1.067-144.427 0.555-4.437 6.357-5.589 8.96-2.176 3.755 4.907 52.181 64.725 68.565 124.373 4.736 16.896 26.752 104.32 26.752 104.32 13.269-25.131 51.755-47.275 92.8-47.275 122.155 0 204.971 111.275 204.971 260.395-0.128 112.64-95.573 217.6-240.64 217.6z" />
<glyph unicode="&#xe66c;" d="M341.333 128h-128v426.667h128v-426.667zM810.667 128h-128v227.925c0 59.392-21.163 88.96-63.104 88.96-33.237 0-54.315-16.555-64.896-49.707 0-53.845 0-267.179 0-267.179h-128c0 0 1.707 384 0 426.667h101.035l7.808-85.333h2.645c26.24 42.667 68.181 71.595 125.696 71.595 43.733 0 79.104-12.16 106.112-42.709 27.179-30.592 40.704-71.637 40.704-129.28v-240.939zM343.467 661.334c0-35.346-29.609-64-66.133-64s-66.133 28.654-66.133 64c0 35.346 29.609 64 66.133 64 36.524 0 66.133-28.654 66.133-64z" />
<glyph unicode="&#xe66d;" d="M680.192 248.235c101.291 0 151.808 33.749 151.808 101.248 0 55.637-31.957 90.965-96.171 106.24l-47.744 10.027c-27.179 6.784-40.576 21.12-40.576 43.051 0 25.344 16.896 37.931 50.603 37.931 37.077 0 56.448-14.251 58.155-42.923l73.259 7.595c-4.864 62.421-47.317 93.653-126.379 93.653-86.144 0-129.109-35.499-129.109-106.453 0-50.432 27.904-82.56 83.541-96.043l50.688-10.069c33.707-8.363 50.603-23.68 50.603-45.568 0-26.923-26.197-40.491-78.592-40.491-63.915 0-106.197 31.232-126.379 93.653l-25.472 73.429c-15.104 48.853-33.963 83.072-56.917 102.443-22.613 19.2-58.325 29.141-107.477 29.141-45.611 0-85.632-16.896-120.107-50.688-34.603-33.749-51.925-78.421-51.925-134.059 0-52.181 16.341-93.995 49.323-125.227 33.024-31.275 72.021-46.891 117.589-46.891 45.611 0 81.835 10.923 108.8 32.853l-22.613 63.36c-23.637-23.723-51.669-35.541-83.627-35.541-26.88 0-50.133 10.581-69.461 31.744-19.413 20.992-29.269 48.512-29.269 82.219 0 42.197 10.539 72.875 31.701 92.288 21.205 19.413 45.056 29.056 72.064 29.056 28.757 0 49.28-7.552 62.165-22.613 12.629-15.232 23.893-38.912 34.005-70.912l22.912-73.429c26.965-85.931 91.904-129.024 194.603-129.024z" />
<glyph unicode="&#xe66e;" d="M615.893 385.152c11.477 0 20.992-5.675 29.269-16.896 8.192-11.307 12.544-25.088 12.544-41.6 0-16.427-4.352-30.336-12.544-41.515-8.235-11.307-17.792-16.896-29.269-16.896-11.861 0-22.272 5.589-30.507 16.896-8.192 11.179-12.544 25.088-12.544 41.515 0 16.512 4.352 30.293 12.544 41.6 8.192 11.264 18.603 16.896 30.507 16.896zM762.667 537.003c31.829-34.603 48-76.587 48-125.995 0-31.915-3.669-60.715-11.051-86.315-7.467-25.472-16.811-46.251-27.904-62.251-11.264-16.043-25.088-30.080-41.557-42.197-16.469-12.203-31.616-20.992-45.44-26.581-13.867-5.632-29.653-9.941-47.403-13.056-17.792-3.029-30.976-4.736-40.235-5.248-9.088-0.384-18.688-0.597-29.227-0.597-2.347 0-10.368-0.171-23.339-0.64-12.843-0.555-23.893-0.683-32.512-0.683s-19.669 0.128-32.512 0.683c-12.971 0.469-20.992 0.64-23.339 0.64-10.496 0-20.139 0.213-29.227 0.597-9.301 0.512-22.443 2.219-40.235 5.248-18.048 3.072-33.536 7.424-47.403 13.056-13.824 5.589-29.013 14.379-45.397 26.581-16.512 12.117-30.336 26.155-41.6 42.197-11.136 16-20.437 36.779-27.904 62.251-7.381 25.6-11.051 54.4-11.051 86.315 0 49.408 16.171 91.435 48 125.995-3.499 1.749-3.627 19.072-0.341 51.925 2.688 32.896 9.685 63.232 21.12 90.965 39.851-4.224 89.173-26.837 148.096-67.456 19.883 5.077 46.976 7.808 81.792 7.808 36.352 0 63.616-2.731 81.835-7.851 26.837 18.133 52.48 32.896 77.013 44.117 24.917 11.136 42.88 17.749 54.144 19.499l16.896 3.84c11.52-27.691 18.517-58.027 21.163-90.965 3.243-32.811 3.115-50.133-0.384-51.883zM513.28 203.35c72.021 0 126.037 8.619 163.029 25.899 36.48 17.237 55.125 52.821 55.125 106.496 0 31.147-11.648 57.173-35.072 77.995-11.861 11.221-26.155 18.133-42.197 20.736-16 2.603-40.491 2.603-73.387 0-32.811-2.645-55.381-3.84-67.499-3.84-16.427 0-34.133 0.768-56.277 2.517-22.187 1.707-39.595 2.773-52.181 3.328-12.544 0.384-25.984-1.152-40.875-4.608-14.72-3.499-26.837-9.557-36.395-18.133-22.229-20.011-33.707-45.952-33.707-77.995 0-53.675 18.176-89.259 54.613-106.496 36.267-17.28 90.155-25.899 162.219-25.899h2.603zM409.429 385.152c11.435 0 20.992-5.675 29.227-16.896 8.192-11.307 12.544-25.088 12.544-41.6 0-16.427-4.352-30.336-12.544-41.515-8.192-11.307-17.792-16.896-29.227-16.896-11.904 0-22.272 5.589-30.549 16.896-8.192 11.179-12.544 25.088-12.544 41.515 0 16.512 4.352 30.293 12.544 41.6 8.235 11.264 18.603 16.896 30.549 16.896z" />
<glyph unicode="&#xe66f;" d="M320 256c-94.123 0-170.667 76.544-170.667 170.667s76.544 170.667 170.667 170.667 170.667-76.544 170.667-170.667-76.544-170.667-170.667-170.667zM320 512c-47.061 0-85.333-38.272-85.333-85.333s38.272-85.333 85.333-85.333 85.333 38.272 85.333 85.333-38.272 85.333-85.333 85.333zM704 597.334c-94.123 0-170.667-76.544-170.667-170.667s76.544-170.667 170.667-170.667 170.667 76.544 170.667 170.667-76.544 170.667-170.667 170.667z" />
<glyph unicode="&#xe670;" d="M512 768c-188.203 0-341.333-153.131-341.333-341.333s153.131-341.333 341.333-341.333c68.949 0 135.339 20.437 191.957 59.051 19.456 13.312 24.491 39.851 11.221 59.307-13.269 19.499-39.765 24.405-59.307 11.221-42.411-28.971-92.16-44.245-143.872-44.245-141.184 0-256 114.816-256 256s114.816 256 256 256 256-114.816 256-256v-21.333c0-23.552-19.115-42.667-42.667-42.667s-42.667 19.115-42.667 42.667v128c0 23.595-19.072 42.667-42.667 42.667-18.816 0-34.347-12.373-40.021-29.355-24.747 18.219-54.997 29.355-87.979 29.355-82.347 0-149.333-66.987-149.333-149.333s66.987-149.333 149.333-149.333c44.587 0 84.267 20.053 111.616 51.157 23.381-30.848 60.075-51.157 101.717-51.157 70.571 0 128 57.429 128 128v21.333c0 188.203-153.131 341.333-341.333 341.333zM512 362.667c-35.285 0-64 28.715-64 64s28.715 64 64 64 64-28.715 64-64-28.715-64-64-64z" />
<glyph unicode="&#xe671;" d="M682.667 128c-34.219 0-66.347 13.312-90.539 37.504l-80.128 80.171-80.171-80.171c-48.341-48.341-132.651-48.341-181.035 0-24.149 24.149-37.461 56.32-37.461 90.496s13.312 66.347 37.504 90.539l80.128 80.128-80.128 80.171c-24.192 24.149-37.504 56.32-37.504 90.496s13.312 66.347 37.504 90.539c48.341 48.299 132.651 48.341 181.035-0.043l80.128-80.171 80.171 80.171c48.341 48.341 132.651 48.341 181.035 0 24.149-24.149 37.461-56.32 37.461-90.496s-13.312-66.347-37.504-90.539l-80.128-80.128 80.128-80.171c24.192-24.149 37.504-56.32 37.504-90.496s-13.312-66.347-37.504-90.539c-24.149-24.149-56.277-37.461-90.496-37.461zM512 366.336l140.501-140.501c16.128-16.128 44.245-16.085 60.331 0 8.064 8.064 12.501 18.731 12.501 30.165s-4.437 22.101-12.501 30.165l-140.459 140.501 140.459 140.501c8.064 8.064 12.501 18.773 12.501 30.165s-4.437 22.101-12.501 30.165c-16.128 16.171-44.245 16.128-60.331 0.043l-140.501-140.544-140.501 140.501c-16.128 16.128-44.245 16.085-60.331 0-8.064-8.064-12.501-18.773-12.501-30.165s4.437-22.101 12.501-30.165l140.459-140.501-140.459-140.501c-8.064-8.064-12.501-18.731-12.501-30.165s4.437-22.101 12.501-30.165c16.128-16.171 44.245-16.128 60.331-0.043l140.501 140.544z" />
<glyph unicode="&#xe672;" d="M512 42.667c-70.571 0-128 57.429-128 128l2.261 130.261-129.493-2.261c-71.339 0-128.768 57.429-128.768 128 0 70.571 57.429 128 128 128l130.261 2.304-2.261 124.928c0 71.339 57.429 128.768 128 128.768s128-57.429 128-128l2.347-125.696 126.421-2.304c69.803 0 127.232-57.429 127.232-128 0-70.571-57.429-128-128-128l-125.653 2.261-2.347-131.029c0-69.803-57.429-127.232-128-127.232zM469.333 384v-214.101c0-22.741 19.157-41.899 42.667-41.899s42.667 19.157 42.667 42.667v213.333h214.101c22.741 0 41.899 19.157 41.899 42.667s-19.157 42.667-42.667 42.667h-213.333v213.333c0 24.277-19.157 42.667-42.667 42.667s-42.667-19.157-42.667-42.667v-213.333h-213.333c-24.277 0-42.667-19.157-42.667-42.667s19.157-42.667 42.667-42.667h213.333z" />
<glyph unicode="&#xe673;" d="M768 256h-512c-70.571 0-128 57.429-128 128s57.429 128 128 128h512c70.571 0 128-57.429 128-128s-57.429-128-128-128zM256 426.667c-23.509 0-42.667-19.157-42.667-42.667s19.157-42.667 42.667-42.667h512c23.509 0 42.667 19.157 42.667 42.667s-19.157 42.667-42.667 42.667h-512z" />
<glyph unicode="&#xe674;" d="M469.333 85.334c-34.176 0-66.347 13.312-90.496 37.504l-170.667 170.667c-24.192 24.149-37.504 56.32-37.504 90.496s13.312 66.347 37.504 90.539c48.341 48.341 132.651 48.341 180.992 0l50.688-50.688 130.944 235.648c22.443 40.619 65.408 65.877 111.957 65.877 21.632 0 43.179-5.589 62.123-16.128 29.867-16.64 51.456-43.861 60.885-76.715 9.429-32.896 5.419-67.456-11.221-97.365l-213.333-384c-19.371-34.901-54.571-59.051-94.123-64.597-5.931-0.811-11.819-1.237-17.749-1.237zM298.667 426.667c-11.435 0-22.101-4.437-30.165-12.501s-12.501-18.731-12.501-30.165 4.437-22.101 12.501-30.165l170.667-170.667c9.515-9.429 22.315-14.080 36.011-12.075 13.312 1.835 25.003 9.899 31.445 21.504l213.333 384c5.547 9.941 6.869 21.461 3.755 32.427-3.115 10.965-10.368 20.053-20.395 25.6-20.181 11.264-46.976 3.328-57.899-16.555l-185.899-334.549-130.645 130.645c-8.107 8.064-18.773 12.501-30.208 12.501z" />
<glyph unicode="&#xe675;" d="M384 853.334h-213.333c-47.061 0-85.333-38.229-85.333-85.333v-213.333c0-47.104 38.272-85.333 85.333-85.333h213.333c47.061 0 85.333 38.229 85.333 85.333v213.333c0 47.104-38.272 85.333-85.333 85.333zM384 554.667h-213.333v213.333h213.333v-213.333zM853.333 853.334h-213.333c-47.104 0-85.333-38.229-85.333-85.333v-213.333c0-47.104 38.229-85.333 85.333-85.333h213.333c47.104 0 85.333 38.229 85.333 85.333v213.333c0 47.104-38.229 85.333-85.333 85.333zM853.333 554.667h-213.333v213.333h213.333v-213.333zM384 384h-213.333c-47.061 0-85.333-38.229-85.333-85.333v-213.333c0-47.104 38.272-85.333 85.333-85.333h213.333c47.061 0 85.333 38.229 85.333 85.333v213.333c0 47.104-38.272 85.333-85.333 85.333zM384 85.334h-213.333v213.333h213.333v-213.333zM853.333 384h-213.333c-47.104 0-85.333-38.229-85.333-85.333v-213.333c0-47.104 38.229-85.333 85.333-85.333h213.333c47.104 0 85.333 38.229 85.333 85.333v213.333c0 47.104-38.229 85.333-85.333 85.333zM853.333 85.334h-213.333v213.333h213.333v-213.333z" />
<glyph unicode="&#xe676;" d="M768 426.667h-512c-70.571 0-128 57.429-128 128s57.429 128 128 128h512c70.571 0 128-57.429 128-128s-57.429-128-128-128zM256 597.334c-23.552 0-42.667-19.157-42.667-42.667s19.115-42.667 42.667-42.667h512c23.552 0 42.667 19.157 42.667 42.667s-19.115 42.667-42.667 42.667h-512zM768 128h-512c-70.571 0-128 57.429-128 128s57.429 128 128 128h512c70.571 0 128-57.429 128-128s-57.429-128-128-128zM256 298.667c-23.552 0-42.667-19.157-42.667-42.667s19.115-42.667 42.667-42.667h512c23.552 0 42.667 19.157 42.667 42.667s-19.115 42.667-42.667 42.667h-512z" />
<glyph unicode="&#xe677;" d="M512 576c-70.571 0-128 57.429-128 128s57.429 128 128 128 128-57.429 128-128-57.429-128-128-128zM512 746.667c-23.552 0-42.667-19.157-42.667-42.667s19.115-42.667 42.667-42.667 42.667 19.157 42.667 42.667-19.115 42.667-42.667 42.667zM512 21.334c-70.571 0-128 57.429-128 128s57.429 128 128 128 128-57.429 128-128-57.429-128-128-128zM512 192c-23.552 0-42.667-19.157-42.667-42.667s19.115-42.667 42.667-42.667 42.667 19.157 42.667 42.667-19.115 42.667-42.667 42.667zM768 298.667h-512c-70.571 0-128 57.429-128 128 0 70.571 57.429 128 128 128h512c70.571 0 128-57.429 128-128 0-70.571-57.429-128-128-128zM256 469.334c-23.552 0-42.667-19.157-42.667-42.667s19.115-42.667 42.667-42.667h512c23.552 0 42.667 19.157 42.667 42.667s-19.115 42.667-42.667 42.667h-512z" />
<glyph unicode="&#xe678;" d="M426.667 85.334c-34.219 0-66.347 13.312-90.539 37.504-24.149 24.149-37.461 56.32-37.461 90.496s13.312 66.347 37.504 90.539l122.795 122.795-122.795 122.837c-24.192 24.149-37.504 56.32-37.504 90.496s13.312 66.347 37.504 90.539c48.341 48.299 132.651 48.341 181.035-0.043l303.829-303.829-303.872-303.829c-24.149-24.192-56.277-37.504-90.496-37.504zM426.667 682.667c-11.435 0-22.101-4.437-30.165-12.459-8.064-8.107-12.501-18.816-12.501-30.208s4.437-22.101 12.501-30.165l183.125-183.168-183.125-183.168c-8.064-8.064-12.501-18.731-12.501-30.165s4.437-22.101 12.501-30.165c16.128-16.171 44.245-16.128 60.331-0.043l243.541 243.541-243.541 243.499c-8.064 8.064-18.731 12.501-30.165 12.501z" />
<glyph unicode="&#xe679;" d="M554.667 85.334c-34.219 0-66.347 13.312-90.539 37.504l-303.829 303.829 303.872 303.829c48.341 48.341 132.693 48.341 181.035 0 24.149-24.149 37.461-56.32 37.461-90.496s-13.312-66.347-37.504-90.539l-122.795-122.795 122.795-122.837c24.192-24.149 37.504-56.32 37.504-90.496s-13.312-66.347-37.504-90.539c-24.149-24.149-56.277-37.461-90.496-37.461zM280.96 426.667l243.541-243.499c16.128-16.128 44.245-16.085 60.331 0 8.064 8.064 12.501 18.731 12.501 30.165s-4.437 22.101-12.501 30.165l-183.125 183.168 183.125 183.168c8.064 8.064 12.501 18.773 12.501 30.165s-4.437 22.101-12.501 30.165c-16.128 16.171-44.245 16.128-60.331 0.043l-243.541-243.541z" />
<glyph unicode="&#xe67a;" d="M512 42.667c-34.176 0-66.347 13.312-90.496 37.504s-37.547 56.363-37.504 90.581c0 31.829 11.563 42.581 32.597 85.248h-206.336c-70.571 0-128 57.472-128 128 0 70.571 57.429 128 128 128h206.336c-21.077 42.667-32.597 53.547-32.597 85.376 0.043 34.219 13.312 66.304 37.547 90.496 48.299 48.299 132.608 48.341 180.949-0.043l303.829-303.829-303.829-303.829c-24.149-24.192-56.32-37.504-90.496-37.504zM210.261 426.667c-23.552 0-42.667-19.157-42.667-42.667s19.115-42.667 42.667-42.667h412.075l-140.501-140.501c-8.064-8.064-12.501-18.731-12.501-30.123 0-11.477 4.437-22.144 12.501-30.208 16.171-16.128 44.16-16.128 60.331 0l243.499 243.499-243.499 243.499c-16.171 16.128-44.16 16.128-60.331 0-8.064-8.064-12.501-18.731-12.501-30.123 0-11.435 4.437-22.144 12.501-30.208l140.501-140.501h-412.075z" />
<glyph unicode="&#xe67b;" d="M466.261 42.667c-34.176 0-66.347 13.312-90.496 37.504l-303.829 303.829 303.829 303.829c48.341 48.384 132.651 48.384 180.992 0 24.149-24.064 37.504-56.192 37.504-90.411 0-31.829-11.52-61.909-32.597-85.419h206.336c70.571 0 128-57.429 128-128s-57.429-128-128-128h-206.336c21.035-23.424 32.597-53.419 32.597-85.248 0.085-34.219-13.312-66.432-37.504-90.624-24.192-24.149-56.32-37.461-90.496-37.461zM192.597 384l243.499-243.499c16.171-16.128 44.16-16.128 60.331 0 8.064 8.064 12.501 18.816 12.501 30.208s-4.437 22.059-12.416 30.080l-140.587 140.544h412.075c23.552 0 42.667 19.157 42.667 42.667s-19.115 42.667-42.667 42.667h-412.075l140.501 140.501c8.064 8.064 12.501 18.816 12.501 30.208s-4.437 22.059-12.459 30.080c-16.256 16.213-44.203 16.171-60.373 0.043l-243.499-243.499z" />
<glyph unicode="&#xe67c;" d="M256 256h-85.333c-47.104 0-85.333-38.229-85.333-85.333v-85.333c0-47.104 38.229-85.333 85.333-85.333h85.333c47.104 0 85.333 38.229 85.333 85.333v85.333c0 47.104-38.229 85.333-85.333 85.333zM256 85.334h-85.333v85.333h85.333v-85.333zM256 554.667h-85.333c-47.104 0-85.333-38.229-85.333-85.333v-85.333c0-47.104 38.229-85.333 85.333-85.333h85.333c47.104 0 85.333 38.229 85.333 85.333v85.333c0 47.104-38.229 85.333-85.333 85.333zM256 384h-85.333v85.333h85.333v-85.333zM256 853.334h-85.333c-47.104 0-85.333-38.229-85.333-85.333v-85.333c0-47.104 38.229-85.333 85.333-85.333h85.333c47.104 0 85.333 38.229 85.333 85.333v85.333c0 47.104-38.229 85.333-85.333 85.333zM256 682.667h-85.333v85.333h85.333v-85.333zM554.667 256h-85.333c-47.104 0-85.333-38.229-85.333-85.333v-85.333c0-47.104 38.229-85.333 85.333-85.333h85.333c47.104 0 85.333 38.229 85.333 85.333v85.333c0 47.104-38.229 85.333-85.333 85.333zM554.667 85.334h-85.333v85.333h85.333v-85.333zM554.667 554.667h-85.333c-47.104 0-85.333-38.229-85.333-85.333v-85.333c0-47.104 38.229-85.333 85.333-85.333h85.333c47.104 0 85.333 38.229 85.333 85.333v85.333c0 47.104-38.229 85.333-85.333 85.333zM554.667 384h-85.333v85.333h85.333v-85.333zM554.667 853.334h-85.333c-47.104 0-85.333-38.229-85.333-85.333v-85.333c0-47.104 38.229-85.333 85.333-85.333h85.333c47.104 0 85.333 38.229 85.333 85.333v85.333c0 47.104-38.229 85.333-85.333 85.333zM554.667 682.667h-85.333v85.333h85.333v-85.333zM853.333 256h-85.333c-47.104 0-85.333-38.229-85.333-85.333v-85.333c0-47.104 38.229-85.333 85.333-85.333h85.333c47.104 0 85.333 38.229 85.333 85.333v85.333c0 47.104-38.229 85.333-85.333 85.333zM853.333 85.334h-85.333v85.333h85.333v-85.333zM853.333 554.667h-85.333c-47.104 0-85.333-38.229-85.333-85.333v-85.333c0-47.104 38.229-85.333 85.333-85.333h85.333c47.104 0 85.333 38.229 85.333 85.333v85.333c0 47.104-38.229 85.333-85.333 85.333zM853.333 384h-85.333v85.333h85.333v-85.333zM853.333 853.334h-85.333c-47.104 0-85.333-38.229-85.333-85.333v-85.333c0-47.104 38.229-85.333 85.333-85.333h85.333c47.104 0 85.333 38.229 85.333 85.333v85.333c0 47.104-38.229 85.333-85.333 85.333zM853.333 682.667h-85.333v85.333h85.333v-85.333z" />
<glyph unicode="&#xe67d;" d="M810.667 170.667c23.467 0 42.667-19.2 42.667-42.667s-19.2-42.667-42.667-42.667h-597.333c-23.467 0-42.667 19.2-42.667 42.667s19.2 42.667 42.667 42.667h597.333zM810.667 256h-597.333c-70.571 0-128-57.429-128-128s57.429-128 128-128h597.333c70.571 0 128 57.429 128 128s-57.429 128-128 128zM810.667 469.334c23.467 0 42.667-19.2 42.667-42.667s-19.2-42.667-42.667-42.667h-597.333c-23.467 0-42.667 19.2-42.667 42.667s19.2 42.667 42.667 42.667h597.333zM810.667 554.667h-597.333c-70.571 0-128-57.429-128-128s57.429-128 128-128h597.333c70.571 0 128 57.429 128 128s-57.429 128-128 128zM810.667 768c23.467 0 42.667-19.2 42.667-42.667s-19.2-42.667-42.667-42.667h-597.333c-23.467 0-42.667 19.2-42.667 42.667s19.2 42.667 42.667 42.667h597.333zM810.667 853.334h-597.333c-70.571 0-128-57.429-128-128s57.429-128 128-128h597.333c70.571 0 128 57.429 128 128s-57.429 128-128 128z" />
</font>
</defs>
</svg>
