<?xml version="1.0" standalone="no"?>
<!DOCTYPE svg PUBLIC "-//W3C//DTD SVG 1.1//EN" "http://www.w3.org/Graphics/SVG/1.1/DTD/svg11.dtd" >
<svg xmlns="http://www.w3.org/2000/svg">
<metadata>
<json>
{
	"fontFamily": "socialmedia",
	"designer": "Tekanewa Scripts",
	"majorVersion": 1,
	"minorVersion": 0,
	"version": "Version 1.0",
	"fontId": "socialmedia",
	"psName": "socialmedia",
	"subFamily": "Regular",
	"fullName": "socialmedia",
	"description": "Generated by IcoMoon"
}
</json>
</metadata>
<defs>
<font id="socialmedia" horiz-adv-x="1024">
<font-face units-per-em="1024" ascent="960" descent="-64" />
<missing-glyph horiz-adv-x="1024" />
<glyph unicode="&#x20;" d="" horiz-adv-x="512" />
<glyph unicode="&#xe0d8;" d="M1023 472.296c0-40.785-21.332-78.373-55.717-99.789 1.939-11.434 3.012-23.014 3.012-34.764 0-169.922-205.972-308.176-459.172-308.176-253.198 0-459.19 138.254-459.19 308.176 0 12.109 1.158 24.049 3.201 35.777-33.479 21.604-54.135 58.641-54.135 98.773 0 64.895 52.809 117.725 117.725 117.725 28.551 0 55.504-10.213 76.875-28.701 79.404 50.492 185.527 82.162 302.536 84.373l82.246 233.68 198.158-47.354c14.295 35.164 48.809 60.010 89.045 60.010 53 0 96.143-43.123 96.143-96.143 0-53.039-43.143-96.164-96.143-96.164-52.953 0-96.033 43.018-96.143 95.953l-167.246 39.965-66.939-190.262c112.297-4.254 213.868-35.732 290.428-84.73 21.498 18.93 48.725 29.375 77.59 29.375 64.895 0 117.727-52.83 117.727-117.725zM867.584 855.054c-32.637 0-59.168-26.553-59.168-59.168 0-32.637 26.531-59.166 59.168-59.166s59.168 26.529 59.168 59.166c0 32.615-26.531 59.168-59.168 59.168zM37.996 472.296c0-23.414 10.273-45.27 27.457-60.43 17.645 47.775 51.967 91.15 98.543 127.262-13.244 9.033-28.889 13.918-45.27 13.918-44.514 0-80.73-36.217-80.73-80.75zM511.126 66.546c232.794 0 422.194 121.662 422.196 271.202 0 149.543-189.4 271.184-422.196 271.184-232.818 0-422.198-121.641-422.198-271.184 0-149.539 189.381-271.202 422.198-271.202zM957.18 410.686c18 15.182 28.824 37.564 28.824 61.609 0 44.533-36.217 80.75-80.73 80.75-16.76 0-32.719-5.137-46.174-14.57 46.512-36.279 80.688-79.826 98.080-127.789zM365.27 319.829c-39.986 0-72.391 32.365-72.391 72.328 0 39.945 32.404 72.348 72.391 72.348 39.945 0 72.307-32.402 72.307-72.348 0-39.965-32.361-72.328-72.307-72.328zM739.586 392.158c0-39.963-32.365-72.328-72.309-72.328-39.982 0-72.371 32.365-72.371 72.328 0 39.945 32.387 72.348 72.371 72.348 39.943 0 72.309-32.404 72.309-72.348zM681.152 222.488c7.244-7.096 7.52-18.656 0.506-25.984-2.166-2.252-54.072-55.059-171.377-55.059-117.934 0-165.1 53.543-167.037 55.82-6.654 7.748-5.748 19.455 2.021 26.064 7.729 6.59 19.309 5.727 25.963-1.893 1.051-1.182 40.428-43.020 139.053-43.020 100.312 0 144.318 43.334 144.762 43.777 7.098 7.221 18.805 7.41 26.109 0.293z" />
<glyph unicode="&#xe108;" d="M480.888 854.922c271-12.572 553.682-199.936 541.748-447.106-8.777-180.846-196.061-340.172-488.464-341.924-125.309-0.771-202.608 20.902-255.34 41.652-4.010 1.582-5.709 2.736-5.533 4.607 0.453 2.027 2.631 2.027 7.83 0.793 129.221-30.506 175.098 21.33 153.363 60.168-24.037 43.158-188.086 40.377-305.254 121.293l1.049 2.625s7.783 18.436 10.029 23.545c1.871 4.242 3.539 6.363 8.109 6.305h142.025c4.416 0.057 6.584-2.063 9.096-7.521 2.898-6.67 14.393-34.5 14.393-34.5 0.078-0.154 9.641-25.664 33.67-26.477 5.881-0.23 26.322 2.275 33.082 23.391 1.977 6.113 1.795 11.359 0.936 15.41-0.377 2.121-0.936 3.738-1.408 5.205-0.586 1.313-1.080 2.373-1.371 3.029-1.822 3.893-146.018 324.47-146.365 325.272-2.854 6.363-5.912 11.625-12.678 11.625-3.291 0.049-5.539-1.271-7.359-3.248-1.023-1.156-1.918-2.363-2.787-3.779-0.889-1.572-1.727-3.135-2.555-4.709-1.543-3.027-85.225-188.613-125.461-277.876l-5.525-12.209c-13.719 14.848-20.336 24.955-20.336 24.955-26.602 34.906-51.17 92.68-54.234 142.086-12.342 201.052 185.627 360.984 479.342 347.388zM489.982 297.144v306.574c0 24.799-13.664 35.656-37.027 35.656s-37.207-10.857-37.207-35.656v-306.576c0-24.857 13.691-35.561 37.062-35.561 23.391 0.002 37.172 10.705 37.172 35.562zM924.172 297.144v306.574c0 24.799-13.229 35.656-36.582 35.656-12.574 0-22.16-3.229-28.369-9.547-3.506-3.432-6.615-7.971-9.408-13.787l-108.207-238.020-105.771 238.020c-2.699 5.814-5.863 10.355-9.334 13.787-6.287 6.318-15.852 9.547-28.387 9.547-23.449 0-36.559-10.857-36.559-35.656v-306.576c0-24.857 14.383-35.561 37.717-35.561 23.391 0 36.986 10.705 36.986 35.561v143.357l72.18-146.402c6.152-10.955 18.014-23.373 32.918-22.986 16.277-0.385 29.197 11.438 36.293 23.354l71.93 145.633v-142.955c0-24.857 13.441-35.561 36.834-35.561 23.451 0.002 37.76 10.705 37.76 35.562zM262.208 390.286h-85.186c-4.271 0-4.502 4.145-3.625 6.17l41.355 97.131 0.48 1.061c0.234 0.551 0.434 1.061 0.762 1.523 0.414 0.705 1.59 2.469 3.615 2.469 2.037 0 3.172-1.766 3.627-2.469l0.713-1.523 0.531-1.002 41.24-97.111c1.443-3.047 0.229-6.248-3.514-6.248z" />
<glyph unicode="&#xe600;" d="M896 800h-768c-70.688 0-128-57.344-128-128v-416c0-70.688 57.312-128 128-128h768c70.688 0 128 57.312 128 128v416c0 70.656-57.312 128-128 128zM64 632l223.968-168-223.968-168v336zM960 256c0-35.328-28.736-64-64-64h-768c-35.296 0-64 28.672-64 64l250.624 188 139.776-104.864c17.056-12.736 37.312-19.2 57.6-19.2 20.256 0 40.512 6.432 57.568 19.2l139.808 104.864 250.624-188zM960 296l-224 168 224 168v-336zM550.368 364.736c-11.168-8.384-24.416-12.8-38.368-12.8s-27.232 4.448-38.4 12.8l-409.6 307.264c0 35.296 28.704 64 64 64h768c35.264 0 64-28.704 64-64l-409.632-307.264z" />
<glyph unicode="&#xe602;" d="M341.182 493.988l-338.014-379.712c-0.865 3.822-2.168 7.518-2.168 11.703v669.644c0 5.082 1.42 9.674 2.713 14.287zM987.974 841.752l-475.954-445.466-475.922 445.466c2.627 0.555 4.945 1.752 7.539 1.752h936.756c2.732 0 5.104-1.197 7.58-1.752zM525.616 346.757l124.549 116.436 340.716-382.682c-3.418-1.047-6.707-2.414-10.486-2.414h-936.756c-3.6 0-6.932 1.367-10.326 2.414l340.74 382.682 124.42-116.436c3.865-3.736 8.711-5.553 13.549-5.553 4.85 0 9.686 1.816 13.594 5.553zM682.988 493.988l337.49 315.9c1.279-4.592 2.52-9.268 2.52-14.266v-669.644c0-4.145-1.133-7.84-2.051-11.662z" />
<glyph unicode="&#xe603;" d="M1023 79.294v0 0h-1022v763.012h1022v-763.012zM876.49 235.696v0 0l-289.408 204.648-72.352-63.561-81.48 69.037-269.328-216.87-3.633-1.211h-1.229v-140.494h717.43v148.449zM876.49 261.945v0 0 429.47l-274.228-237.636zM830.906 834.37v0 0l-628.704 1.211 308.874-307.274 3.035 2.422 2.443 2.459 3.631 1.824 3.055 3.689 4.246 3.018 10.32 8.568 5.496 6.148 6.688 5.439 6.688 6.742 7.918 6.707 16.391 15.908 9.148 8.533 10.318 8.568 9.742 10.377 34.648 32.99 38.301 38.488 14.588 13.449 14.008 14.66 15.199 14.66 15.797 15.891 17.027 15.887 16.41 17.064 17.623 17.139zM417.454 459.272v0 0l-257.796 219.31-0.596-425.786z" />
<glyph unicode="&#xe604;" d="M1024 545.143v-453.714q0-37.714-26.857-64.571t-64.571-26.857h-841.143q-37.714 0-64.571 26.857t-26.857 64.571v453.714q25.143-28 57.714-49.714 206.857-140.571 284-197.143 32.571-24 52.857-37.429t54-27.429 62.857-14h1.143q29.143 0 62.857 14t54 27.429 52.857 37.429q97.143 70.286 284.571 197.143 32.571 22.286 57.143 49.714zM1024 713.143q0-45.143-28-86.286t-69.714-70.286q-214.857-149.143-267.429-185.714-5.714-4-24.286-17.429t-30.857-21.714-29.714-18.571-32.857-15.429-28.571-5.143h-1.143q-13.143 0-28.571 5.143t-32.857 15.429-29.714 18.571-30.857 21.714-24.286 17.429q-52 36.571-149.714 104.286t-117.143 81.429q-35.429 24-66.857 66t-31.429 78q0 44.571 23.714 74.286t67.714 29.714h841.143q37.143 0 64.286-26.857t27.143-64.571z" />
<glyph unicode="&#xe605;" d="M993.244 649.768l-116.617-24.85c-17.332-4.906-64.475-39.625-146.318-106.635-86.84-69.475-131.504-114.098-138.93-136.467l-4.961-61.994-2.5-37.254 9.926-94.211 153.797-2.463-2.48-47.125h-250.53l-223.272-2.52 7.48 44.682 71.91 2.461c37.236 2.5 59.584 7.426 67.010 14.924 4.926 4.889 7.426 34.664 7.426 86.791v32.199l-2.5 64.512c-4.926 14.906-44.67 69.457-121.531 163.74-79.365 96.713-131.486 153.816-156.281 173.686l-143.873 19.828v42.199c7.424 4.926 86.824 4.926 233.178 2.445 101.684 2.482 186.037 2.482 253.018-2.445l-4.961-34.811-151.299-14.852c47.080-69.438 119.062-166.24 215.784-287.744 126.541 96.783 193.459 158.758 195.959 186.016l-128.986 19.885-9.926 44.625h215.81l203.422-2.48-29.754-42.143z" />
<glyph unicode="&#xe606;" d="M853.342 960h-682.656c-93.874 0-170.686-76.81-170.686-170.69v-682.622c0-93.938 76.812-170.688 170.686-170.688h682.656c93.876 0 170.658 76.75 170.658 170.69v682.62c0 93.88-76.782 170.69-170.658 170.69zM853.342 832c7.988 0 15.546-2.334 22.020-6.342l-363.362-300.404-363.354 300.4c6.478 4.010 14.044 6.346 22.040 6.346h682.656zM170.686 64c-1.924 0-3.82 0.146-5.684 0.408l225.626 312.966-29.256 29.254-233.372-233.37v611.138l384-464.396 384 464.394v-611.136l-233.372 233.37-29.254-29.254 225.628-312.968c-1.858-0.26-3.746-0.406-5.662-0.406h-682.654z" />
<glyph unicode="&#xe607;" d="M559.066 896c0 0-200.956 0-267.94 0-120.12 0-233.17-91.006-233.17-196.422 0-107.726 81.882-194.666 204.088-194.666 8.498 0 16.756 0.17 24.842 0.752-7.93-15.186-13.602-32.288-13.602-50.042 0-29.938 16.104-54.21 36.468-74.024-15.386 0-30.242-0.448-46.452-0.448-148.782 0.002-263.3-94.758-263.3-193.020 0-96.778 125.542-157.314 274.334-157.314 169.624 0 263.306 96.244 263.306 193.028 0 77.6-22.896 124.072-93.686 174.134-24.216 17.144-70.53 58.836-70.53 83.344 0 28.72 8.196 42.868 51.428 76.646 44.312 34.624 75.672 83.302 75.672 139.916 0 67.406-30.020 133.098-86.372 154.772h84.954l59.96 43.344zM465.48 240.542c2.126-8.972 3.284-18.206 3.284-27.628 0-78.2-50.392-139.31-194.974-139.31-102.842 0-177.116 65.104-177.116 143.3 0 76.642 92.126 140.444 194.964 139.332 24-0.254 46.368-4.116 66.67-10.69 55.826-38.826 95.876-60.762 107.172-105.004zM300.818 532.224c-69.038 2.064-134.636 77.226-146.552 167.86-11.916 90.666 34.37 160.042 103.388 157.99 69.010-2.074 134.638-74.814 146.558-165.458 11.906-90.66-34.39-162.458-103.394-160.392zM832 704v192h-64v-192h-192v-64h192v-192h64v192h192v64z" />
<glyph unicode="&#xe608;" d="M848 320l-14.858 416.020c-0.628 17.59 13.258 31.98 30.858 31.98h128c17.6 0 29.468-14.176 26.376-31.502l-74.376-416.498zM960 184c0-30.8-25.2-56-56-56h-16c-30.8 0-56 25.2-56 56v16c0 30.8 25.2 56 56 56h16c30.8 0 56-25.2 56-56v-16zM384 768c-212.078 0-384-143.268-384-320 0-176.73 171.922-320 384-320 212.078 0 384 143.27 384 320 0 176.732-171.922 320-384 320zM640 512h-74.262l-117.738-117.74v-74.26h96v-64h-256v64h96v74.26l-181.74 181.74h-42.062v64h191.606v-64h-42.064l106.26-106.26 32 32v74.26h192v-64z" />
<glyph unicode="&#xe609;" d="M784 936c-107.2-57.6-449.6-510.4-592-779.2-52.8-100.8-54.4-107.2-28.8-136 51.2-56 180.8-89.6 296-78.4 177.6 17.6 260.8 78.4 332.8 240 57.6 129.6 83.2 256 102.4 492.8 22.4 273.6 1.6 323.2-110.4 260.8zM264 769.6c-94.4-54.4-209.6-172.8-241.6-249.6-12.8-30.4-22.4-92.8-22.4-140.8 0-83.2 40-235.2 60.8-235.2 8 0 273.6 574.4 304 657.6 9.6 24-17.6 16-100.8-32z" horiz-adv-x="912" />
<glyph unicode="&#xe60a;" d="M1011.41 129.099c0-99.057-80.293-179.299-179.273-179.299-99.055 0-179.324 80.242-179.324 179.299 0 3.244 0.295 6.412 0.471 9.629l-354.928 180.949c-29.766-22.057-66.543-35.283-106.441-35.283-99.057 0-179.324 80.268-179.324 179.299 0 99.029 80.268 179.297 179.324 179.297 44.338 0 84.857-16.193 116.172-42.865l345.548 176.18c-0.5 5.363-0.824 10.729-0.824 16.193 0 99.006 80.27 179.299 179.324 179.299 98.979 0 179.273-80.293 179.273-179.299 0-99.031-80.293-179.299-179.273-179.299-44.164 0-84.484 16.018-115.723 42.441l-345.998-176.43c0.447-5.115 0.773-10.279 0.773-15.52 0-9.307-0.947-18.365-2.295-27.297l342.778-174.758c31.84 28.943 74.008 46.758 120.465 46.758 98.982 0.004 179.275-80.289 179.275-179.295z" />
<glyph unicode="&#xe60b;" d="M587.192 504.86v29.227c-97.723 0-200.938-20.916-200.938-135.965 0-58.498 30.328-97.959 82.139-97.959 37.916 0 72.049 23.354 93.498 61.396 26.555 46.771 25.301 90.656 25.301 143.301zM723.402 175.489c-8.961-8.010-21.869-8.566-31.941-3.133-44.893 37.279-52.926 54.525-77.438 90.018-74.139-75.535-126.67-98.188-222.71-98.188-113.742 0-202.18 70.17-202.18 210.538 0 109.666 59.375 184.225 144.045 220.79 73.295 32.172 175.672 38.008 254.012 46.793v17.549c0 32.146 2.506 70.182-16.436 97.957-16.434 24.859-48.025 35.084-75.811 35.084-51.52 0-97.34-26.393-108.576-81.104-2.355-12.188-11.223-24.221-23.488-24.85l-130.918 14.184c-11.049 2.482-23.354 11.363-20.148 28.238 30.072 158.842 173.523 206.836 302.074 206.836 65.713 0 151.645-17.549 203.458-67.26 65.715-61.42 59.4-143.301 59.4-232.496v-210.448c0-63.299 26.275-91.086 50.975-125.229 8.633-12.256 10.584-26.881-0.418-35.84-27.602-23.143-76.648-65.738-103.623-89.74zM908.522 138.046c18.918 8.031 34.771-12.441 16.273-26.137-111.908-82.564-274.116-126.508-413.806-126.508-195.773 0-372.060 72.379-505.464 192.85-10.469 9.471-1.137 22.4 11.467 15.064 143.916-83.773 321.898-134.191 505.764-134.191 124 0 260.326 25.719 385.768 78.922zM941.924 37.489c13.51 33.752 43.732 109.238 29.434 127.574-14.322 18.338-94.613 8.707-130.686 4.367-10.912-1.301-12.629 8.217-2.787 15.18 64.066 44.963 169.012 31.986 181.197 16.922 12.305-15.203-3.201-120.402-63.23-170.635-9.238-7.752-18.014-3.619-13.928 6.592z" />
<glyph unicode="&#xe60c;" d="M51.2 354.417v125.061c0 11.459 9.411 20.828 20.941 20.828h220.989l-96.215-166.738h-124.774c-11.53 0-20.941 9.349-20.941 20.849zM208.62 98.335l-70.523-47.78c-9.492-6.451-16.2-2.365-14.889 9.021l9.411 81.756c1.311 11.387 10.547 16.036 20.531 10.342l54.579-31.181c9.974-5.714 10.383-15.729 0.891-22.159zM225.556 144.415l-54.579 31.191c-9.984 5.704-13.496 18.483-7.69 28.426l252.733 438.108c5.734 9.953 18.657 13.445 28.631 7.67l54.579-31.109c9.984-5.775 13.414-18.565 7.69-28.488l-252.733-438.139c-5.724-9.933-18.657-13.343-28.631-7.66zM417.905 333.568l96.215 166.738h55.398l78.131-166.738h-229.745zM731.269 283.812c-21.842 10.906-130.662 260.874-158.556 326.093-27.904 65.219-112.179 238.828-84.92 252.334 19.395 9.687 89.016-127.017 141.21-209.091 52.122-82.074 161.106-293.693 174.52-317.788 13.343-24.166-12.841-44.298-27.402-50.33-14.572-6.031-23.009-12.042-44.851-1.219zM802.785 168.919l-32.891 51.712c-6.789 10.752-3.267 24.033 7.772 29.706l31.334 16.046c11.049 5.622 24.873 1.065 30.761-10.189l25.938-49.664c5.898-11.233 1.884-25.651-8.755-32l-22.415-13.343c-10.639-6.431-24.955-2.929-31.744 7.731zM923.791 33.28c-6.871 21.903-59.32 23.357-82.801 56.351-23.562 32.881-4.086 49.818 4.096 57.641 95.232 53.402 78.705-113.992 78.705-113.992zM972.8 354.417c0-11.5-9.411-20.849-20.941-20.849h-110.623c-1.219 6.431-3.195 12.861-6.543 18.893-2.867 5.13-10.148 18.964-20.296 38.257-14.643 27.843-35.666 67.656-58.173 109.588h195.625c11.53 0 20.941-9.37 20.941-20.828v-125.061z" />
<glyph unicode="&#xe60d;" d="M559.565 838.994c33.096 38.912 89.037 67.86 135.199 69.806 5.888-54.057-15.78-108.186-47.811-147.19-32.082-38.932-84.593-69.263-136.131-65.219-7.004 52.89 18.964 108.042 48.742 142.602zM822.18 101.612c-38.308-56.177-77.926-112.015-140.472-113.183-61.553-1.167-81.285 36.577-151.532 36.577-70.318 0-92.324-35.41-150.436-37.745-60.385-2.273-106.312 60.672-144.916 116.603-78.879 114.35-139.11 323.338-58.132 464.374 40.1 70.042 111.964 114.35 189.819 115.528 59.31 1.096 115.333-40.11 151.542-40.11 36.291 0 104.294 49.469 175.77 42.209 29.921-1.239 113.9-12.093 167.844-91.259-4.27-2.806-100.239-58.829-99.082-175.524 1.167-139.397 121.774-185.723 123.177-186.358-1.106-3.277-19.292-66.15-63.58-131.113z" />
<glyph unicode="&#xe60e;" d="M651.899-12.8v0c-78.387 0-121.19 53.299-139.715 85.084-20.736 34.683-44.503 39.383-64.993 39.383-16.978 0-35.676-3.82-55.501-7.823-18.125-3.656-36.895-7.516-56.228-8.817l-2.212-0.123-2.14 0.358c-97.475 17.879-159.642 56.064-184.822 113.459-36.895 84.183 21.135 175.882 23.624 179.722l393.523 454.523c59.484 43.674 111.483 65.833 154.481 65.833 91.945 0 121.539-98.97 124.355-151.296 0.031-1.28-1.628-77.087-3.287-166.001-1.434-77.015 23.48-100.014 23.716-100.219 15.002-8.868 25.518-23.603 28.344-41.001 5.857-36.147-22.938-71.127-26.245-74.988l-4.782-5.581-7.363-0.481c-11.336-7.158-18.678-60.559-20.736-158.321-0.338-16.056-0.645-28.877-1.331-36.076-1.772-96.543-35.052-133.12-59.955-152.105-43.694-24.054-82.893-35.533-118.733-35.533zM447.201 146.104c41.769 0 71.967-17.94 94.986-56.422 14.868-25.498 48.773-68.045 109.711-68.045 29.901 0 63.468 10.056 99.758 29.839 16.998 13.199 42.691 42.301 44.247 125.297 0.707 7.997 0.952 19.978 1.249 34.877 2.079 96.215 7.004 177.183 44.421 190.198 7.045 9.718 17.592 28.221 15.145 43.028-0.778 4.7-3.123 11.756-14.285 18.534-5.601 4.229-39.977 33.894-38.216 128.696 1.669 89.047 3.318 164.854 3.318 164.854-0.225 3.574-7.629 117.412-89.62 117.412-35.062 0-79.524-19.476-132.219-57.958l-387.922-448.42c0.236 0-48.937-78.961-19.538-145.684 20.152-45.824 72.96-77.015 157.030-92.764 16.353 1.28 33.188 4.721 49.469 7.997 20.644 4.219 41.964 8.561 62.464 8.561zM752.404 431.944c-29.942-1.659-56.515-1.659-56.515-1.659l-0.031 257.096c0 0-8.325 69.253-74.875 21.443l-350.884-412.068c0 0-23.276-34.601 0-41.144 0 0 23.276-18.176 43.244-9.902 16.63 14.797 91.464 115.364 282.737 137.4-1.659-99.543 1.659-239.596 1.659-239.596s53.217-56.044 104.755 0c0 57.385-1.659 240.077-1.659 262.042 3.676-0.84 17.377 3.676 53.217 8.182 0.010 0 28.314 8.346-1.649 18.207zM604.396 430.285c0 0-79.862-6.605-111.462-8.141-31.601-1.577-8.325 14.725-8.325 14.725l119.777 133.519v-140.104z" />
<glyph unicode="&#xe60f;" d="M51.2 721.777l409.6-132.833v-584.468l-406.938 138.516zM561.777 2.56l411.023 140.431v574.976l-409.672-127.13zM511.601 657.254l376.044 122.337-376.044 113.848-384.686-113.848z" />
<glyph unicode="&#xe610;" d="M297.093 564.859c5.478-78.336-36.977-145.132-94.863-149.197-57.866-4.055-109.23 56.146-114.708 134.502-5.478 78.336 36.977 145.142 94.863 149.207 57.876 4.055 109.24-56.166 114.708-134.513zM695.695 889.61c-56.228 14.346-117.494-35.727-136.837-111.831-19.395-76.104 10.486-149.422 66.714-163.768 56.207-14.336 117.504 35.717 136.847 111.831 25.19 99.052-53.248 160.348-66.724 163.768zM827.525 633.088c-59.146-0.881-106.076-57.129-104.776-144.261 1.29-87.122 50.217-126.843 109.404-125.962 59.116 0.881 106.066 42.004 104.786 129.167-1.71 113.398-95.252 141.261-109.414 141.056zM399.012 908.8c-56.279 0-101.898-63.078-101.898-140.861s45.619-140.831 101.898-140.831 101.908 63.048 101.908 140.831-45.629 140.861-101.908 140.861zM385.987 471.347c-32.512-46.684-69.376-92.262-140.923-151.982-71.557-59.72-101.908-100.956-101.908-161.741s34.693-161.741 133.345-161.741c98.652 0 146.35 21.719 224.41 21.719 78.060 0 130.109-30.403 228.751-30.403 98.662 0 139.858 93.358 139.858 154.143s-17.121 95.201-96.154 164.577c-50.647 44.503-93.573 80.742-160.788 174.1-33.239 46.162-71.557 52.101-111.657 52.101-40.12 0-82.401-14.111-114.934-60.774z" />
<glyph unicode="&#xe611;" d="M55.071 241.551c6.482-9.564 13.486-18.76 20.951-27.576 14.92-17.582 31.734-33.516 49.92-47.657 38.707-30.054 83.354-51.62 129.741-66.796 53.658-17.592 109.783-26.972 165.919-31.642 65.116-5.417 131.113-5.345 196.086 1.485 60.191 6.328 120.156 18.842 176.548 41.247 49.92 19.845 95.836 48.179 135.977 84.009 10.373 9.298 20.419 19.22 28.692 30.505 6.984 9.533 12.585 20.070 13.588 32.031 1.147 14.019-1.157 28.283-3.922 41.964-3.072 15.165-7.107 30.095-10.926 45.076-1.413 5.458-2.765 10.916-3.994 16.404-14.725 64.911-37.212 128.123-67.748 187.249-25.876 50.094-57.815 97.393-94.884 139.848-34.621 39.66-74.906 74.342-121.16 99.615-24.566 13.414-50.545 24.115-77.302 32.143-14.459 4.352-29.164 7.926-43.981 10.813-3.799 0.748-7.639 1.71-11.51 1.71-4.895 0-9.789 0-14.694 0-9.421 0-18.842 0-28.262 0-4.301 0-8.643 0.205-12.923-0.317-3.942-0.471-7.885-1.034-11.827-1.679-7.506-1.229-14.971-2.724-22.385-4.495-14.694-3.533-29.143-8.141-43.213-13.67-28.129-11.059-54.784-25.774-79.647-42.926-48.589-33.505-90.788-76.155-126.31-123.218-37.663-49.92-67.748-105.411-90.993-163.43-24.709-61.706-41.769-126.362-52.316-191.99-1.341-8.438-3.297-17.183-3.297-25.713 0-4.588 0-9.175 0-13.732 0-2.202-0.051-3.379 1.157-5.202 0.901-1.352 1.782-2.693 2.714-4.055zM115.128 282.245c0.778 4.342 1.69 8.653 2.693 12.943 1.915 8.049 4.219 16.005 6.912 23.859 10.322 30.177 25.917 58.173 42.65 85.197 8.325 13.404 16.835 26.675 25.303 39.977 8.643 13.588 17.459 27.095 27.382 39.782 16.097 20.603 35.901 42.813 61.573 51.108 36.076 11.643 63.058-25.907 83.927-49.091 11.878-13.158 24.668-27.013 41.021-34.519 7.537-3.461 15.749-5.243 24.044-4.731 12.093 0.768 22.815 9.073 31.805 16.538 24.637 20.439 44.739 46.264 63.928 71.711 21.002 27.853 41.288 56.289 65.311 81.664 9.851 10.394 20.347 24.187 34.458 28.785 6.441 2.099 13.466 1.454 19.599-1.372 3.359-1.546 6.431-3.727 9.093-6.308 3.021-2.929 6.615-5.233 9.984-7.772 25.774-19.507 49.613-41.544 72.141-64.717 19.599-20.152 38.205-41.247 56.023-63.017 17.357-21.268 34.058-42.926 48.425-66.406 17.459-28.6 32.225-58.675 48.486-87.951 14.838-26.706 29.839-57.59 15.022-87.706-0.778-1.587-1.628-3.185-2.54-4.7-26.296-44.493-73.748-72.202-120.596-90.337-56.422-21.821-117.166-32.215-177.295-36.424-62.147-4.362-125.051-4.157-187.095 1.659-56.074 5.263-112.538 15.247-165.294 35.625-44.093 17.029-86.6 42.199-116.091 79.985-6.881 8.817-12.984 18.237-18.176 28.16-0.614 1.178-1.229 2.386-1.843 3.604-0.87 1.761-1.198 2.478-0.85 4.454z" />
<glyph unicode="&#xe612;" d="M558.080-12.8h-92.16c-203.305 0-368.64 165.417-368.64 368.64v460.8c0 50.944 41.216 92.16 92.16 92.16 50.852 0 92.16-41.216 92.16-92.16v-460.8c0-101.612 82.708-184.32 184.32-184.32h92.16c101.612 0 184.32 72.356 184.32 161.28 0 90.9-49.592 161.28-92.16 161.28h-184.32c-50.944 0-92.16 41.308-92.16 92.16 0 50.944 41.216 92.16 92.16 92.16h184.32c152.463 0 276.48-154.982 276.48-345.6 0-190.525-165.417-345.6-368.64-345.6z" />
<glyph unicode="&#xe613;" d="M883.487 653.568h-230.932v57.364h230.943v-57.364zM498.831 418.355c14.899-23.071 22.344-51.098 22.344-83.988 0-34.028-8.397-64.543-25.477-91.505-10.865-17.848-24.351-32.911-40.561-45.036-18.258-14.039-39.875-23.654-64.717-28.795-24.924-5.151-51.907-7.752-80.968-7.752h-258.253v573.44h276.941c69.806-1.137 119.296-21.361 148.521-61.082 17.531-24.361 26.225-53.586 26.225-87.562 0-35.062-8.796-63.109-26.501-84.429-9.851-11.95-24.402-22.815-43.663-32.625 29.174-10.68 51.313-27.505 66.109-50.668zM183.45 508.641h121.344c24.934 0 45.097 4.741 60.621 14.213 15.514 9.462 23.255 26.276 23.255 50.422 0 26.675-10.25 44.38-30.802 52.9-17.664 5.919-40.264 8.97-67.686 8.97h-106.732v-126.505zM400.353 342.548c0 29.798-12.175 50.381-36.475 61.43-13.588 6.287-32.758 9.492-57.344 9.718h-123.085v-152.812h121.18c24.893 0 44.165 3.256 58.071 10.056 25.078 12.503 37.652 36.291 37.652 71.608zM969.155 435.835c2.796-18.76 4.055-45.978 3.543-81.551h-299.069c1.659-41.288 15.903-70.154 42.936-86.671 16.292-10.363 36.055-15.421 59.197-15.421 24.392 0 44.288 6.175 59.597 18.852 8.346 6.717 15.708 16.21 22.067 28.17h109.609c-2.867-24.371-16.067-49.101-39.782-74.24-36.751-39.926-88.3-59.965-154.481-59.965-54.682 0-102.871 16.896-144.701 50.555-41.697 33.772-62.628 88.556-62.628 164.547 0 71.26 18.801 125.798 56.525 163.768 37.847 38.031 86.712 56.965 146.944 56.965 35.697 0 67.881-6.38 96.584-19.21 28.631-12.841 52.275-33.055 70.912-60.826 16.855-24.463 27.699-52.746 32.748-84.972zM861.266 425.134c-2.017 28.549-11.551 50.156-28.703 64.922-17.029 14.807-38.287 22.241-63.652 22.241-27.617 0-48.927-7.946-64.082-23.562-15.247-15.585-24.74-36.772-28.631-63.601h185.068z" />
<glyph unicode="&#xe614;" d="M51.2 847.36v-492.175h0.645c6.881-170.097 209.94-306.545 460.155-306.545 254.525 0 460.8 141.138 460.8 315.29 0 174.141-206.275 315.279-460.8 315.279-111.35 0-213.545-27.054-293.233-72.090v240.241h-167.567zM512 574.106c161.997 0 293.233-94.085 293.233-210.176 0-116.111-131.226-210.196-293.233-210.196-161.925 0-293.233 94.085-293.233 210.196 0 116.091 131.318 210.176 293.233 210.176zM318.167 363.93c0 76.769 86.804 138.916 193.833 138.916 107.1 0 193.833-62.147 193.833-138.916 0-76.739-86.733-138.936-193.833-138.936-107.028 0-193.833 62.198-193.833 138.936z" />
<glyph unicode="&#xe615;" d="M247.030 115.804l-0.061-0.215h4.71c2.437-0.102 4.844-0.379 7.301-0.379 2.478 0 4.874 0.276 7.311 0.379l461.855 0.123c3.379-0.123 6.676-0.502 10.076-0.502 129.556 0 234.588 105.882 234.588 236.483 0 130.621-105.032 236.493-234.588 236.493-4.772 0-9.452-0.43-14.162-0.717-20.132 109.957-115.579 193.331-230.502 193.331-129.546 0-234.578-105.882-234.578-236.493 0-3.43 0.369-6.799 0.512-10.199-0.174 0-0.328 0.020-0.512 0.020-114.739 0-207.77-93.768-207.77-209.459 0-111.606 86.671-202.588 195.82-208.865z" />
<glyph unicode="&#xe616;" d="M51.2 96.553l67.062 67.072v105.728l215.101-215.081h-105.738l-67.062-67.072-109.363 109.353zM105.615 615.526v-165.53c107.756 0 213.115-42.045 289.403-118.374 76.175-76.186 118.241-181.934 118.241-290.048h166.185c0 314.337-259.738 573.952-573.829 573.952zM105.585 908.8v-165.489c384.215 0 701.276-317.051 701.276-701.727h165.939c0 475.853-391.444 867.215-867.215 867.215z" />
<glyph unicode="&#xe617;" d="M678.871-12.8c160.686 0 291.215 130.898 292.116 290.703l1.812 235.295-2.714 12.8-7.721 16.108-13.056 10.097c-16.957 13.302-102.881-0.901-126.013 20.111-16.415 14.991-18.975 42.076-23.941 78.787-9.226 71.096-15.053 74.803-26.194 98.908-40.448 85.586-150.211 149.903-225.628 158.792h-204.257c-160.696 0-292.076-131.092-292.076-291.205v-339.692c0-159.805 131.379-290.703 292.076-290.703h335.596zM346.993 670.894h161.946c30.915 0 55.962-25.098 55.962-55.603 0-30.382-25.047-55.685-55.962-55.685h-161.946c-30.925 0-55.91 25.313-55.91 55.685 0 30.505 24.986 55.603 55.91 55.603zM291.082 282.204c0 30.495 24.986 55.409 55.91 55.409h329.062c30.72 0 55.665-24.914 55.665-55.409 0-30.095-24.945-55.398-55.665-55.398h-329.062c-30.925-0.010-55.91 25.303-55.91 55.398z" />
<glyph unicode="&#xe618;" d="M123.761 189.798h34.662c1.659-12.595 3.656-48.138-17.705-84.838 0 0 97.577 4.7 117.402 84.838h642.12c40.079 0 72.561 32.563 72.561 72.745v455.762c0 40.172-32.481 72.735-72.561 72.735h-776.479c-40.059 0-72.561-32.563-72.561-72.735v-455.772c0-40.172 32.502-72.735 72.561-72.735zM823.419 440.73c19.057 0 34.499-15.473 34.499-34.54 0-19.077-15.442-34.55-34.499-34.55-19.016 0-34.417 15.473-34.417 34.55 0 19.067 15.401 34.54 34.417 34.54zM616.899 335.616c0.184-2.324 0.338-4.639 0.338-7.004 0-48.22-38.984-87.276-87.060-87.276-38.584 0-71.24 25.139-82.698 59.955l169.421 34.324zM204.216 440.73c19.016 0 34.458-15.473 34.458-34.54 0-19.077-15.442-34.55-34.458-34.55s-34.478 15.473-34.478 34.55c0 19.067 15.462 34.54 34.478 34.54z" />
<glyph unicode="&#xe619;" d="M633.805 506.143c0-10.25 5.396-52.982-13.425-85.862-18.842-32.86-77.66-13.281-77.66-13.281v167.516c0 0 10.854 20.511 55.378 15.38 44.564-5.11 35.707-73.503 35.707-83.753zM942.080 908.8v-580.127c0-20.46-13.937-42.66-39.813-54.62-59.095-27.341-820.347-286.853-820.347-286.853l169.042 867.236c0 0 13.742 54.364 86.825 54.364s604.293 0 604.293 0zM720.323 618.957c-37.704 102.584-169.288 56.412-171.018 22.231l-6.584 1.71v170.947l-112.64-17.091v-432.486c0 0 66.335-61.542 174.213-44.442 107.919 17.091 124.303 107.694 124.303 107.694s29.379 88.873-8.274 191.437z" />
<glyph unicode="&#xe61a;" d="M967.68 715.448c0-81.838-75.704-151.624-182.477-179.876l-85.535-87.788v74.926c-6.472-0.276-12.954-0.645-19.507-0.645-158.822 0-287.58 86.569-287.58 193.382 0 106.783 128.758 193.352 287.58 193.352 158.792 0 287.519-86.569 287.519-193.352zM321.321 529.029c-152.003 0-275.241-121.293-275.241-270.92 0-149.606 123.238-270.909 275.241-270.909h126.556c1.249 0 2.437 0.184 3.686 0.195v144.968h-78.623c0 0-145.009-12.134-147.476 125.757 2.468 137.902 147.476 125.757 147.476 125.757h78.633v144.968c-1.249 0.010-2.437 0.184-3.686 0.184h-126.566z" />
<glyph unicode="&#xe61b;" d="M439.583 306.678c0-23.306-18.954-42.189-42.301-42.189s-42.271 18.883-42.271 42.189c0 23.327 18.924 42.281 42.271 42.281s42.301-18.944 42.301-42.281zM906.24 352.307c0-123.146-99.953-222.956-223.15-222.956-1.946 0-3.85 0.164-5.786 0.215-38.943-83.988-123.802-142.367-222.525-142.367-135.526 0-245.371 109.773-245.371 245.207 0 107.807 69.796 199.188 166.646 231.997 3.584 166.205-58.102 276.193-129.239 269.763-74.435-6.748-135.322-6.748-128.532 30.423 6.738 37.14 67.625-3.4 74.435 43.94 6.717 47.268-27.085 67.543 23.654 94.566 46.715 24.893 58.972-36.198 55.327-96.154 172.759 42.312 316.047-165.079 360.284-237.855 16.435 3.871 33.485 6.185 51.118 6.185 123.187 0.020 223.14-99.809 223.14-222.966zM432.415 476.396c7.373 0.666 14.807 1.126 22.364 1.126 14.162 0 27.945-1.454 41.472-3.758 24.433 37.478 59.812 67.072 101.581 84.439-123.884 194.376-232.1 219.197-293.786 212.111 110.060-83.64 126.095-252.948 128.369-293.919zM647.342 232.407c0 84.91-55.173 156.867-131.625 182.385-0.092-0.236-0.205-0.471-0.287-0.696-14.008 4.68-28.621 7.66-43.848 8.991 0.092 0.287 0.215 0.543 0.307 0.829-5.642 0.512-11.325 0.87-17.111 0.87-106.363 0-192.563-86.17-192.563-192.369 0-106.25 86.2-192.43 192.563-192.43 71.946 0 134.584 39.506 167.639 97.925-0.256 0.072-0.512 0.123-0.758 0.205 7.322 12.943 13.148 26.685 17.336 41.247 0.236-0.051 0.492-0.092 0.717-0.143 4.874 16.906 7.629 34.714 7.629 53.187zM862.351 352.307c0 98.959-80.312 179.118-179.261 179.118-57.784 0-108.872-27.474-141.486-69.99 92.6-35.062 158.536-124.252 158.536-229.028 0-20.265-2.734-39.854-7.363-58.685 94.413 5.059 169.574 82.985 169.574 178.586z" />
<glyph unicode="&#xe61c;" d="M515.779 448c0 89.836 59.802 142.909 134.943 142.909 51.62 0 96.082-18.883 122.153-66.345l-61.307-32.154c-14.326 30.628-38.871 37.263-51.139 37.263-45.466 0-61.85-35.226-61.85-81.674 0-46.459 19.436-81.674 61.85-81.674 24.545 0 43.971 9.196 56.73 39.823l57.272-29.102c-24.535-43.377-69.018-71.956-121.139-71.956-81.285-0.010-137.513 51.528-137.513 142.909zM387.082 305.080c52.122 0 96.614 28.58 121.139 71.956l-57.242 29.102c-12.79-30.618-32.215-39.823-56.74-39.823-42.435 0-61.85 35.215-61.85 81.674 0 46.438 16.364 81.674 61.85 81.674 12.257 0 36.792-6.636 51.118-37.263l61.307 32.154c-26.051 47.473-70.533 66.345-122.153 66.345-75.141 0-134.943-53.074-134.943-142.909 0.010-91.372 56.207-142.909 137.513-142.909zM186.46 123.525c-88.515 88.392-135.26 202.015-135.26 324.475 0 121.19 48.015 237.332 136.509 326.973 85.985 87.101 197.243 133.827 323.656 133.827s240.2-46.725 328.714-135.086c87.235-87.122 132.721-200.745 132.721-325.714 0-126.259-45.486-238.602-131.471-323.195-91.023-89.631-208.589-137.605-329.964-137.605-121.354 0-236.421 47.974-324.905 136.325zM134.615 448c0-98.488 40.458-193.157 112.507-265.134 72.059-71.956 165.642-111.084 265.523-111.084 98.601 0 194.683 39.127 269.292 112.353 70.758 69.448 107.448 160.338 107.448 263.864 0 102.257-37.929 195.666-108.728 266.383-72.079 71.946-164.342 111.084-268.012 111.084s-194.714-37.878-265.513-109.824c-72.049-73.226-112.517-167.916-112.517-267.643z" />
<glyph unicode="&#xe61d;" d="M512-12.8c110.070 0 211.128 38.615 290.365 103.014l161.72-58.45-67.42 162.499c48.108 72.765 76.134 159.98 76.134 253.737 0 254.495-206.295 460.8-460.8 460.8s-460.8-206.305-460.8-460.8c0-254.495 206.295-460.8 460.8-460.8zM257.014 567.89l95.98 22.548c27.218 52.5 81.981 88.392 145.203 88.392 36.127 0 69.499-11.745 96.563-31.601l92.969 21.852c21.944 5.14 44.411-10.701 50.217-35.42l62.761-267.203c5.806-24.73-7.26-48.927-29.184-54.088l-430.705-101.181c-21.934-5.161-44.411 10.701-50.217 35.42l-62.781 267.213c-5.806 24.699 7.27 48.906 29.194 54.067zM521.339 328.468c64.102 0 116.081 51.978 116.081 116.091 0 64.102-51.978 116.070-116.081 116.070-64.123 0-116.101-51.968-116.101-116.070 0-64.113 51.978-116.091 116.101-116.091zM521.339 518.789c41.001 0 74.23-33.239 74.23-74.24 0-40.991-33.229-74.22-74.23-74.22s-74.23 33.229-74.23 74.22c0 41.001 33.229 74.24 74.23 74.24z" />
<glyph unicode="&#xe61e;" d="M936.581 627.384c-35.011 82.729-93.409 153.016-166.912 202.691-36.772 24.852-77.343 44.554-120.637 58.010-43.346 13.466-89.364 20.746-137.011 20.716-63.539 0.031-124.242-12.892-179.374-36.229-82.739-34.99-153.068-93.389-202.742-166.912-24.832-36.772-44.524-77.332-57.989-120.658-13.486-43.305-20.726-89.375-20.716-137.011-0.010-63.529 12.892-124.242 36.229-179.395 34.99-82.708 93.399-152.996 166.912-202.691 36.762-24.852 77.322-44.493 120.668-57.989 43.305-13.496 89.364-20.716 137.011-20.716 63.508 0 124.221 12.872 179.354 36.198 82.749 35.011 153.037 93.379 202.732 166.912 24.822 36.803 44.513 77.373 57.979 120.678 13.476 43.295 20.716 89.354 20.716 137.001 0.020 63.549-12.872 124.232-36.219 179.395zM879.196 292.905c-30.239-71.465-80.824-132.362-144.445-175.319-31.785-21.524-66.826-38.533-104.253-50.145-37.407-11.612-77.169-17.879-118.477-17.93h-0.041v398.039h-398.449c0 0.154 0 0.307 0 0.44 0 55.112 11.141 107.438 31.293 155.095 30.208 71.465 80.794 132.393 144.404 175.37 31.805 21.473 66.857 38.461 104.274 50.104 37.407 11.633 77.169 17.91 118.518 17.91v-398.479h398.449c0-55.101-11.141-107.407-31.273-155.085z" />
<glyph unicode="&#xe61f;" d="M659.62 355.072l-34.98-30.904v328.632h161.096l-278.231 256-278.252-256h159.867v-81.654l-33.229 24.146-201.667-188.252h101.775v-419.84h184.32v419.84h113.254l-133.734 129.812v156.908h-112.005l199.67 183.644 199.68-183.644h-113.265v-403.917l-132.495-118.323h112.015v-184.32h184.32v184.32h103.025z" />
<glyph unicode="&#xe620;" d="M573.44 675.543v90.235c122.88-28.375 211.476-112.978 239.729-246.098h-89.795c-23.265 81.92-78.254 132.485-149.934 155.863zM440.32 675.615v90.163c-143.36-28.375-218.665-112.978-246.927-246.098h89.836c23.296 81.92 85.412 132.485 157.092 155.935zM283.228 396.8h-89.836c28.293-153.6 103.567-224.983 246.927-253.338v90.163c-71.68 23.357-133.755 91.494-157.092 163.174zM910.735 454.554c0-225.935-182.385-409.098-407.409-409.098-225.014 0-407.419 183.163-407.419 409.098 0 225.987 182.405 409.088 407.419 409.088 225.034 0 407.409-183.101 407.409-409.088zM869.919 454.605c0 203.305-164.147 368.159-366.623 368.159-202.496 0-366.612-164.864-366.612-368.159 0-203.336 164.106-368.077 366.612-368.077 202.476-0.010 366.623 164.731 366.623 368.077zM503.296 268.114c-102.605 0.123-185.58 83.497-185.774 186.44 0.195 103.066 83.169 186.368 185.774 186.573 102.636-0.205 185.569-83.497 185.733-186.573-0.164-102.943-83.087-186.327-185.733-186.44zM647.782 454.554c0 80.148-64.645 145.152-144.445 145.152s-144.507-65.004-144.507-145.152c0-80.097 64.686-145.029 144.497-145.029s144.456 64.922 144.456 145.029zM573.44 233.615v-90.163c122.88 28.365 211.476 99.748 239.729 253.348h-89.795c-23.306-71.68-78.254-139.817-149.934-163.185zM923.679 215.828c-24.934 0-45.169-20.296-45.169-45.343s20.244-45.343 45.169-45.343c24.924 0 45.087 20.296 45.087 45.343s-20.163 45.343-45.087 45.343zM814.561 100.26c-31.898 0-57.702-25.907-57.702-57.948 0-31.949 25.805-57.917 57.702-57.917 31.816 0 57.692 25.969 57.692 57.917 0 32.041-25.876 57.948-57.692 57.948zM909.292 363.131c-14.52 0-26.337-11.858-26.337-26.44s11.817-26.429 26.337-26.429c14.592 0 26.378 11.848 26.378 26.429s-11.786 26.44-26.378 26.44zM110.725 56.504c-16.036 0-28.989-13.046-28.989-29.092 0-16.128 12.954-29.184 28.989-29.184 15.974 0 28.969 13.046 28.969 29.184 0.010 16.036-12.995 29.092-28.969 29.092zM101.612 209.592c-15.309 0-27.72-12.401-27.72-27.781 0-15.309 12.411-27.822 27.72-27.822 15.319 0 27.658 12.513 27.658 27.822 0 15.38-12.339 27.781-27.658 27.781zM192.123 139.53c-20.49 0-37.13-16.701-37.13-37.294 0-20.634 16.64-37.284 37.13-37.284 20.562 0 37.14 16.65 37.14 37.284 0 20.593-16.579 37.294-37.14 37.294zM923.965 704.174c-10.67 0-19.292-8.653-19.292-19.436 0-10.65 8.622-19.384 19.292-19.384 10.721 0 19.364 8.735 19.364 19.384 0 10.783-8.643 19.436-19.364 19.436zM79.79 785.725c-17.961 0-32.625-14.653-32.625-32.758 0-18.033 14.664-32.686 32.625-32.686 18.033 0 32.635 14.664 32.635 32.686 0 18.115-14.602 32.758-32.635 32.758zM154.655 905.994c-22.682 0-40.98-18.381-40.98-41.155 0-22.702 18.299-41.073 40.98-41.073 22.62 0 40.929 18.371 40.929 41.073 0 22.774-18.309 41.155-40.929 41.155zM90.44 651.039c-11.377 0-20.562-9.247-20.562-20.654 0-11.366 9.175-20.644 20.562-20.644 11.356 0 20.582 9.267 20.582 20.644 0 11.407-9.226 20.654-20.582 20.654z" />
<glyph unicode="&#xe621;" d="M705.884 251.484c-5.601 0-7.813-2.324-12.37-6.789-8.11-10.117-23.030-29.204-48.128-53.883-41.308-41.779-69.816-62.188-88.812-62.188l-4.239 0.369c-13.322 3.287-15.442 14.602-15.227 25.866 0.307 14.582 5.007 27.986 8.765 41.39 30.925 94.525 76.247 181.985 115.026 272.978 21.115 48.425 45.466 95.662 62.116 145.060 7.148 17.889 12.022 38.124 12.37 57.149 0.635 31.508-20.357 50.565-45.998 56.187l-3.881 0.604c-5.786 0-2.621-6.42-7.721-28.6-2.58-14.572-7.363-29.164-12.083-43.735-21.514-68.639-55.286-130.437-85.545-191.13l-9.226-17.869-1.034 6.799c-6.124 34.785-43.694 55.992-78.397 55.992-49.254 0-90.132-30.331-124.539-63.959-44.462-43.745-79.329-103.26-97.055-157.297-32.236-103.229-42.711-232.54 73.718-234.67 31.427 0 68.864 22.374 104.417 67.287l6.769 7.946c-0.010-1.157-0.102-4.465-0.164-6.82-0.614-32.614 17.93-67.43 52.593-67.43 40.305 0 85.791 35.983 155.515 113.531 19.61 21.381 35.697 41.605 46.121 59.494 2.294 5.663 4.669 10.127 4.71 13.414 0.154 6.82-3.226 10.301-7.7 10.301zM462.039 209.879c-17.285-30.331-42.435-57.324-60.733-73.114-10.66-8.53-20.603-12.227-29.522-12.227-21.514 0-36.004 22.344-34.601 55.009 2.806 83.016 41.277 168.387 97.628 234.67 17.039 19.282 35.523 42.793 63.427 42.793 23.644 0 35.574-14.582 35.052-41.605-1.434-72.94-33.014-142.725-71.25-205.527zM425.165 754.575l50.77 13.322c7.475 1.956 15.155 9.636 17.101 17.132l13.281 50.964c1.905 7.444 5.089 7.444 7.045 0l13.281-50.964c1.966-7.485 9.605-15.176 17.070-17.132l50.79-13.322c7.434-1.925 7.434-5.13 0-7.086l-50.79-13.292c-7.465-1.976-15.104-9.667-17.070-17.121l-13.281-50.944c-1.946-7.465-5.14-7.465-7.045 0l-13.281 50.944c-1.946 7.465-9.626 15.145-17.101 17.121l-50.77 13.292c-7.434 1.956-7.434 5.161 0 7.086zM278.753 388.905l-31.519 120.934c-5.192 19.927-25.672 40.468-45.568 45.691l-135.598 35.564c-19.825 5.202-19.825 13.711 0 18.934l135.608 35.553c19.896 5.202 40.376 25.774 45.568 45.681l35.43 136.028c5.192 19.927 13.681 19.927 18.883 0l35.461-136.028c5.171-19.907 25.682-40.479 45.537-45.681l135.619-35.553c19.845-5.222 19.845-13.732 0-18.934l-135.619-35.564c-19.845-5.222-40.356-25.764-45.537-45.691l-16.2-62.198c-15.299-17.889-29.512-37.734-42.066-58.737zM883.558 352.061l80.415-21.105c11.776-3.092 11.776-8.141 0-11.233l-80.415-21.064c-11.766-3.113-23.9-15.299-26.993-27.095l-21.053-80.65c-3.072-11.807-8.059-11.807-11.162 0l-21.033 80.65c-3.072 11.796-15.196 23.982-27.003 27.095l-80.374 21.064c-11.786 3.092-11.786 8.141 0 11.233l80.374 21.105c11.796 3.052 23.931 15.237 27.003 27.075l21.033 80.64c3.103 11.796 8.090 11.796 11.162 0l21.053-80.64c3.092-11.837 15.217-24.023 26.993-27.075z" />
<glyph unicode="&#xe622;" d="M362.68 614.932c-2.693-0.42-5.038-1.065-7.721-1.526l-44.339 90.593-131.482-15.032 53.576-110.264c-277.248-115.149-154.399-386.703-154.399-386.703l423.035 122.491-116.234 237.363c208.62 60.314 382.822-62.996 382.822-62.996l-143.596-39.014-41.339 77.251c-38.902 7.26-83.19 9.472-130.376 1.556l97.782-199.875 422.39 122.399c0 0-153.19 242.002-610.12 163.758zM192.778 332.657c0 0-40.755 90.542 77.855 168.069l63.089-129.843-140.943-38.226z" />
<glyph unicode="&#xe623;" d="M972.8 677.356h-63.816v-0.143h-54.415v180.388h-345.006v-177.869h-118.313v-232.417h-279.593v232.417h-60.457v-233.667h60.436v-62.29h108.339v-107.919h-45.384v-63.539h153.395v-110.479h-153.395v110.479h-61.696v-173.916h276.972v173.916h-61.676v63.539h-45.343v107.919h173.824v-343.593h61v-0.645h402.319v358.369h52.808v279.45zM790.743 796.611v-228.639h-219.167v228.639h219.167zM718.858 101.837v174.019h-56.136v-174.019h-143.084v345.477h-65.495v167.66h55.419v-110.51h344.996v110.51h54.415v-168.909h-51.917v-344.228h-138.199zM328.202 679.731v60.979h63.037v-60.979h-63.037zM328.202 740.7h-153.6v63.498h153.6v-63.498zM174.602 679.731h-62.935v60.979h62.935v-60.979z" />
<glyph unicode="&#xe624;" d="M215.040 775.68v-163.84h-163.84v-327.68h256v491.52h-92.16zM143.36 366.080v163.84h71.68v-163.84h-71.68zM327.68 611.84h92.16v-327.68h-92.16v327.68zM327.68 775.68h92.16v-92.16h-92.16v92.16zM706.56 611.84v0h-245.76v-327.68h153.6v-71.68h-153.6v-92.16h245.76v491.52zM552.96 366.080v163.84h61.44v-163.84h-61.44zM972.8 611.84h-245.76v-327.68h163.84v-71.68h-163.84v-92.16h245.76v491.52zM890.88 366.080h-71.68v163.84h71.68v-163.84z" />
<glyph unicode="&#xe625;" d="M508.652 557.322c114.698 1.792 177.592 62.72 236.216 119.798v-688.517h-115.528c-1.044 27.72-1.628 55.798-2.058 83.999v192.655c0.778 72.847 1.956 145.736 2.222 217.252-16.241-4.311-34.56-12.882-55.214-18.319-62.065-16.374-143.739-7.803-190.976 19.845 0.154-33.935 0.379-68.147 0.645-102.472v-360.038c-0.195-10.977-0.317-21.996-0.553-32.942h-115.978v690.33c59.279-62.761 124.948-123.392 241.224-121.59zM689.695 758.108c41.052 0 74.312 34.058 74.312 76.052s-33.26 76.042-74.312 76.042c-41.042 0-74.322-34.038-74.322-76.042s33.28-76.052 74.322-76.052zM326.328 758.108c41.042 0 74.301 34.058 74.301 76.052s-33.26 76.042-74.301 76.042c-41.052 0-74.332-34.038-74.332-76.042s33.28-76.052 74.332-76.052z" />
<glyph unicode="&#xe626;" d="M511.98 908.8c-254.495-0.020-460.78-206.316-460.78-460.82 0-254.464 206.285-460.78 460.78-460.78 254.495 0 460.79 206.316 460.82 460.78-0.031 254.505-206.326 460.8-460.82 460.82zM794.327 669.88c44.954-57.088 73.103-127.785 76.657-204.984-52.029 11.039-101.171 16.415-146.995 16.415v0.010h-0.338c-36.884 0-71.516-3.348-104.141-9.134-7.936 19.436-15.964 38.103-24.064 55.982 72.663 31.877 142.408 77.261 198.881 141.711zM511.98 807.496c84.808 0 162.591-29.645 224.174-79.002-47.124-56.422-109.332-97.29-176.538-126.147-47.217 91.31-92.846 156.631-124.037 196.567 24.689 5.478 50.176 8.581 76.401 8.581zM353.188 770.017c24.955-29.471 74.916-94.3 128.276-195.523-108.524-32.307-217.805-39.895-283.924-39.875-1.884 0-3.748 0-5.581 0.020h-0.061c-11.131 0-20.705 0.174-28.703 0.42 25.795 103.219 96.512 188.703 189.993 234.957zM152.474 447.98c0 1.69 0.061 3.41 0.164 5.181 10.26-0.379 23.429-0.707 39.27-0.707h0.092c72.264 0.471 198.441 6.513 326.308 46.879 6.973-15.237 13.865-31.109 20.695-47.585-85.391-28.559-152.648-74.056-202.394-119.368-47.882-43.622-80.241-86.815-99.144-115.661-52.9 62.628-84.961 143.114-84.992 231.26zM511.98 88.463c-80.005 0-153.743 26.46-213.565 70.861 12.718 20.941 39.977 61.133 83.384 102.676 44.667 42.803 106.322 86.856 186.819 113.080 27.361-76.698 52.122-164.383 70.984-263.076-39.731-15.135-82.668-23.542-127.621-23.542zM715.448 152.3c-18.237 89.262-41.175 169.748-66.355 241.582 23.357 3.348 47.872 5.243 73.738 5.243h1.044c42.885 0 89.999-5.335 141.097-16.947-17.684-95.058-72.745-176.927-149.524-229.878z" />
<glyph unicode="&#xe627;" d="M798.822 541.635l-275.661 167.895 173.844 143.913 275.825-169.738-174.008-142.070zM695.163 224.276l264.724 154.982-159.232 134.687-259.174-156.826 153.682-132.844zM482.601 357.12l-259.205 156.826-159.191-134.687 264.745-154.982 153.651 132.844zM236.36 246.415v-49.818l264.561-162.355v308.132l-175.677-143.913-88.883 47.954zM787.681 246.415l-88.822-47.964-175.698 143.923v-308.132l264.52 162.355v49.818zM500.92 709.53l-173.844 143.913-275.855-169.738 174.039-142.070 275.661 167.895z" />
<glyph unicode="&#xe628;" d="M713.359 737.413c-47.206 29.338-91.822 40.847-136.335 70.185-27.597 18.637-65.894 63.027-98.017 101.192-6.185-61.266-24.914-86.18-46.326-103.946-45.353-35.451-73.892-46.090-113.132-67.43-32.963-16.886-212.029-123.382-212.029-352.492 0-229.059 193.352-397.722 408.013-397.722 214.743 0 400.947 155.361 400.947 390.646 0 235.295-174.623 341.821-203.121 359.567zM716.984 76.759c-4.485-4.403-45.466-32.829-93.542-37.304-48.118-4.403-113.183-7.076-152.351 28.447-6.216 6.236-4.495 15.043 0 18.586 4.444 3.615 7.997 6.287 13.373 6.287 5.376 0 4.403 0 7.137-1.782 17.807-14.234 44.513-25.723 101.499-25.723 57.047 0 97.178 15.892 114.964 29.286 8.008 6.195 11.571 0.86 12.493-2.703 0.86-3.533 2.652-8.899-3.574-15.094zM562.575 151.501c9.8 8.909 25.887 23.122 41.042 29.307 15.145 6.236 23.081 5.345 37.386 5.345 14.234 0 29.44-0.891 40.090-8.049 10.66-7.107 16.937-23.040 20.429-31.857 3.604-8.94 0-14.234-7.055-17.828-6.205-3.512-7.127-1.751-13.373 9.759-6.185 11.53-11.551 23.122-42.752 23.122-31.16 0-40.98-10.691-56.125-23.122-15.135-12.401-20.5-16.855-25.866-9.759-5.335 7.086-3.553 14.223 6.226 23.081zM884.142 320.748c0-27.505-8.878-77.21-30.321-108.278-21.309-31.119-34.662-42.68-59.699-40.878-32.102 2.703-96.205 102.124-137.175 103.936-51.61 1.751-163.912-107.52-252.14-107.52-53.473 0-69.448 7.987-87.255 19.579-26.767 18.647-40.141 47.043-39.26 86.129 0.952 69.294 65.905 134.031 147.917 134.892 104.172 0.922 176.425-102.902 228.925-102.062 44.575 0.84 130.14 87.91 172.012 87.91 44.524 0 56.996-46.1 56.996-73.708z" />
<glyph unicode="&#xe629;" d="M900.598 684.646c-33.782 0-62.003-23.511-69.96-55.183l-319.939 106.045c-0.164 22.774-18.401 41.134-40.899 41.134-22.579 0-40.899-18.524-40.899-41.431 0-10.834 4.137-20.695 10.895-28.088l-337.92-386.621c-4.004 1.434-8.264 2.263-12.739 2.263-20.941 0-37.939-17.224-37.939-38.4 0-21.228 16.998-38.42 37.939-38.42 14.858 0 27.699 8.643 33.935 21.279l307.077-73.523c-0.922-4.557-1.464-9.277-1.464-14.121 0-37.827 30.321-68.536 67.758-68.536 37.335 0 67.656 30.71 67.656 68.536 0 6.912-1.024 13.578-2.877 19.845l235.182 97.208c6.584-6.697 15.739-10.895 25.856-10.895 20.142 0 36.485 16.538 36.485 37.018 0 12.175-5.837 22.948-14.797 29.727l38.359 188.283c5.857-1.556 11.96-2.417 18.278-2.417 39.885 0 72.202 32.727 72.202 73.134 0.010 40.376-32.307 73.165-72.192 73.165zM493.978 701.88l144.118-176.271-146.36-59.412-8.98 229.755c4.045 1.382 7.803 3.41 11.223 5.929zM469.678 693.78l9.103-232.827-66.857-27.136c-2.877 5.53-6.963 10.25-11.878 13.957l56.381 248.371c4.157-1.475 8.591-2.314 13.251-2.365zM416.696 414.444c0 2.54-0.236 5.048-0.676 7.496l63.263 25.661 7.844-200.172c-5.683-0.748-11.141-2.253-16.261-4.332l-66.898 141.353c7.813 7.516 12.728 18.115 12.728 29.993zM537.856 233.748c-10.537 8.294-23.521 13.435-37.642 14.275l-7.997 204.831 154.204 62.577 69.765-85.371-178.33-196.311zM655.8 519.24l175.616 71.25c2.324-7.895 5.98-15.247 10.66-21.791l-119.316-131.348-66.959 81.889zM828.897 602.982l-181.422-73.564-146.432 179.128c4.045 4.844 7.004 10.66 8.499 17.080l319.304-105.81c-0.276-2.775-0.502-5.54-0.502-8.335 0-2.847 0.236-5.693 0.553-8.499zM447.119 700.774c0.143-0.072 0.276-0.174 0.44-0.246l-56.279-247.798c-4.762 2.017-10.025 3.123-15.483 3.123-22.559 0-40.899-18.565-40.899-41.4 0-3.881 0.543-7.66 1.536-11.244l-222.177-90.112c-1.116 0.983-2.263 1.925-3.502 2.816l336.364 384.86zM126.28 276.429c0.502 2.591 0.799 5.202 0.799 7.926 0 6.697-1.7 12.984-4.68 18.442l219.177 88.955c7.301-11.264 19.896-18.739 34.222-18.739 7.424 0 14.295 2.007 20.275 5.448l66.161-139.756c-13.455-7.956-23.941-20.562-29.379-35.635l-306.575 73.359zM557.742 208.517c-3.205 6.953-7.496 13.322-12.718 18.749l177.357 195.236 67.564-82.647c-2.683-5.089-4.178-10.916-4.178-17.101 0-6.615 1.679-12.759 4.659-18.104l-232.684-96.133zM835.103 357.335c-4.024 1.526-8.325 2.365-12.82 2.365-10.476 0-19.917-4.444-26.542-11.602l-66.775 81.644 119.316 131.369c6.984-7.414 15.401-13.332 24.822-17.285l-38.001-186.491z" />
<glyph unicode="&#xe62a;" d="M878.5 647.68l-71.803-154.358-66.437 154.358h-101.806l17.152-34.54c-9.636 1.075-20.367 2.161-32.164 2.161-26.788 0-50.371-4.321-66.417-17.285-17.162-10.793-26.798-31.293-26.798-62.607h70.717c0 20.511 1.075 39.936 26.798 39.936s28.928-16.189 28.928-37.775v-20.5c-40.724 1.085-80.374 0-105.021-19.415-10.721 10.783-24.658 17.265-46.080 17.265-25.723 0-42.875-7.567-57.866-29.143h-1.075v134.912h-70.717v-121.958c-10.711 5.396-23.583 8.622-38.574 11.878-24.658 5.396-56.812 8.622-97.526 8.622-170.394 0-188.611-52.879-188.611-114.412 0-71.24 21.443-120.893 188.6-120.893 38.584 0 71.813 4.332 98.591 9.738 13.926 3.226 26.798 7.547 37.509 12.954v-52.91h67.523v28.068h1.065c12.872-24.822 32.154-33.454 60.006-33.454 58.952 0 68.577 52.89 70.738 100.383 5.345-1.085 10.711-1.085 17.142-1.085 31.068 0 51.436 12.964 66.437 38.851h1.075l3.205-34.54h66.458c-1.075 16.189-3.215 32.379-3.215 48.568v68.004l28.918-59.372v-126.28h93.235v126.28l124.314 238.551h-94.3zM239.8 480.379c62.157 0 60.017-31.314 60.017-52.9h-117.883c0 18.35-1.065 52.9 57.866 52.9zM338.391 365.957h-42.865c0-19.415-9.646-41.001-55.726-41.001-56.781 0-57.866 39.936-57.866 66.918h193.966v-25.907h-37.509zM505.569 384.307c0-64.758-4.28-91.74-30.003-91.74-24.658 0-28.948 26.982-28.948 91.74 0 50.729 0 86.354 28.948 86.354 31.078 0 30.003-35.625 30.003-86.354zM621.302 391.875c-23.572 0-26.788 22.661-26.788 41.011 0 45.343 26.788 42.097 62.157 44.257 0-28.078 6.42-85.268-35.369-85.268z" />
<glyph unicode="&#xe62b;" d="M887.572 591.585c-13.425-49.91-66.314-74.854-66.314-74.854-120.515 306.248-278.118 392.069-278.118 392.069-6.697-98.243-125.522-175.698-125.522-175.698l-82.442 43.397c13.312-69.714-29.297-134.83-29.297-134.83-170.752-111.524-105.042-340.92-105.042-340.92l-72.837 33.096c54.2-392.509 385.495-344.822 385.495-344.822 472.023 3.328 374.077 602.563 374.077 602.563zM500.838 62.976c-283.238 1.997-224.461 361.544-224.461 361.544 8.028-29.952 39.762-44.913 39.762-44.913 72.325 183.747 166.881 235.223 166.881 235.223 4.045-58.9 75.336-105.431 75.336-105.431l49.449 26.061c-7.997-41.841 17.582-80.886 17.582-80.886 102.431-66.898 63.027-204.554 63.027-204.554l43.694 19.845c-32.512-235.489-231.27-206.889-231.27-206.889z" />
<glyph unicode="&#xe62c;" d="M241.705-5.591c77.629 3.379 171.919 0 263.844 0 94.884 0 192.041 6.308 268.554 0 30.915-2.55 59.351-21.053 84.828-4.669 19.661 25.324 5.079 59.31 9.431 93.379 8.253 64.676 67.891 142.223-18.872 158.72-36.956-33.679-12.042-65.659-32.963-107.377-25.344-50.514-116.142-67.983-202.598-74.68-74.199-5.765-204.257-13.199-230.881 37.335-22.477 42.65-9.441 108.8-9.441 163.389 0 61.747-6.625 120.863 9.441 168.079 94.259-6.892 216.156 31.416 282.696-9.329 44.513-27.279 19.2-80.66 70.676-98.038 35.43 9.513 16.517 55.306 14.121 98.038-1.516 27.535-1.403 66.232 0 98.038 1.905 42.926 18.473 92.713-28.283 93.368-36.721-28.539-9.114-76.104-47.124-102.697-12.145-8.52-38.523-12.114-56.504-14.029-70.615-7.455-181.371-1.372-240.323 9.349-8.12 86.036-7.424 203.284 0 289.444 32 31.785 105.605 32.891 155.494 32.696 87.398-0.348 223.693-7.619 249.713-51.364 14.162-23.798 2.939-73.605 28.283-79.36 50.985-11.643 26.204 79.329 28.283 121.385 1.536 31.529 15.473 51.835 9.4 74.701-16.497 22.538-41.083 11.244-56.525 9.329-160.338-19.825-403.845-9.329-574.812-9.329-20.419 0-56.084 10.179-70.666-14.008-9.861-53.924 63.754-31.631 89.508-60.692 8.376-9.452 20.756-51.2 23.562-79.37 7.455-74.824 0-189.102 0-298.793 0-115.907 8.796-232.827 0-303.462-3.072-24.668-17.951-64.399-23.562-70.031-32.102-32.072-116.961 3.451-108.38-65.372 29.819-20.060 73.011-6.4 113.101-4.649z" />
<glyph unicode="&#xe62d;" d="M304.691 710.185l-149.381 0.174 187.156 188.303 0.051-151.869-37.827-36.608zM833.884 784.988c-15.933 27.443-99.215 59.064-142.459 59.064-43.192 0-111.411 0-111.411 0s-35.758 64.748-119.859 64.748c-84.152 0-78.5-37.509-78.5-69.54v-129.495l-38.144-40.264h-176.128c0 0-49.623-32.819-49.623-103.762 0-70.953 22.016-318.157 169.83-341.033 174.899-27.095 204.851 54.19 204.851 63.959 0 41.175 1.044 103.537 1.044 103.537s51.22-97.853 128.563-97.853 122.317-44.431 122.317-90.184c0-45.793 0-84.664 0-84.664s-2.888-52.992-48.343-52.992c-45.527 0-97.065 0-97.065 0s-31.857 24.812-31.857 59.116 15.575 43.633 33.761 43.633c18.176 0 33.106-2.109 33.106-2.109v72.172c0 0-146.473 0.952-146.473-111.206 0-112.108 76.595-140.913 138.015-140.913 61.368 0 100.055 0 100.055 0s180.675 23.235 180.675 380.16c0 356.956-56.433 390.164-72.356 417.628zM654.213 465.029c0 0 8.796 58.86 42.926 58.86s81.009-78.602 81.009-78.602-106.926 19.743-123.935 19.743z" />
<glyph unicode="&#xe62e;" d="M972.8 755.19c0 80.712-72.868 153.61-153.6 153.61h-614.4c-80.732 0-153.6-72.899-153.6-153.61v-614.38c0-80.712 72.868-153.61 153.61-153.61h307.19v348.16h-112.64v153.6h112.64v59.843c0 103.209 77.507 196.157 172.8 196.157h124.16v-153.6h-124.16c-13.588 0-29.44-16.497-29.44-41.206v-61.194h153.6v-153.6h-153.6v-348.16h163.84c80.732 0 153.6 72.899 153.6 153.61v614.38z" />
<glyph unicode="&#xe62f;" d="M814.438 679.424c-3.277 12.298-9.943 25.395-14.868 36.864-58.972 141.722-187.822 192.512-291.86 192.512-139.274 0-292.669-93.389-313.149-285.891v-39.332c0-1.638 0.563-16.384 1.372-23.757 11.479-91.74 83.866-189.235 137.933-280.975 58.163-98.294 118.518-194.98 178.319-291.635 36.864 63.068 73.605 126.966 109.629 188.416 9.83 18.022 21.228 36.045 31.058 53.248 6.554 11.459 19.067 22.927 24.791 33.587 58.153 106.486 151.777 213.801 151.777 319.478v43.418c0 11.459-14.193 51.599-15.002 54.067zM510.259 481.997c-40.94 0-85.75 20.47-107.868 77.005-3.297 9.001-3.031 27.034-3.031 28.682v25.395c0 72.069 61.194 104.847 114.432 104.847 65.536 0 116.234-52.439 116.234-117.975-0.010-65.536-54.231-117.955-119.767-117.955z" />
<glyph unicode="&#xe630;" d="M389.919 730.307c0-23.224 0-126.884 0-126.884h-92.959v-155.156h92.959v-461.066h190.966v461.056h128.133c0 0 12.001 74.394 17.818 155.74-16.681 0-145.234 0-145.234 0s0 90.266 0 106.086c0 15.852 20.818 37.181 41.4 37.181 20.541 0 63.887 0 104.038 0 0 21.125 0 94.116 0 161.526-53.606 0-114.575 0-141.455 0-200.387 0.010-195.666-155.3-195.666-178.483z" />
<glyph unicode="&#xe631;" d="M714.363 320.225l73.38 532.48h185.078l-140.401-532.48h-118.057zM754.237 241.459c-57.283 0-103.7-45.855-103.7-102.4 0-56.556 46.418-102.4 103.7-102.4s103.7 45.844 103.7 102.4c0 56.556-46.418 102.4-103.7 102.4zM268.442 295.025h315.679l31.918 129.26h-322.294l54.262 277.187h347.802l31.918 154.388h-523.325l-153.18-806.595h169.144l48.077 245.76z" />
<glyph unicode="&#xe632;" d="M807.997 303.124c2.56 13.732 4.332 27.535 4.413 41.359 0.696 173.23-93.46 240.773-193.178 298.496 28.877-151.706-64.512-245.361-180.541-212.572 169.595 277.381-77.179 278.057-1.761 478.392-115.978-82.391-232.325-312.965-231.956-481.249 0.061-44.442 4.536-85.75 12.82-123.597-83.487-33.454-135.875-80.845-135.875-133.376 0-101.007 193.208-183.378 430.1-183.378 236.923 0 430.060 82.371 430.060 183.378 0 52.132-51.712 99.133-134.083 132.547zM347.412 523.305c-32.082-144.66 53.924-252.385 136.745-253.44 93.43-0.696 148.818 86.6 175.206 201.011 49.633-37.888 75.264-90.716 78.551-144.579-0.133 0.041-0.246 0.072-0.379 0.113 3.768-61-21.166-123.32-72.94-166.912-0.266-0.236-0.543-0.471-0.809-0.686-11.141-9.288-23.542-17.674-37.12-25.037-1.198-0.645-2.458-1.26-3.697-1.905-5.437-2.826-11.069-5.458-16.876-7.936-1.679-0.717-3.328-1.444-5.038-2.13-14.244-5.724-29.563-10.353-45.937-13.783-2.304-0.471-4.639-0.87-6.973-1.3-6.185-1.126-12.534-2.109-18.985-2.898-2.54-0.297-5.048-0.645-7.639-0.901-8.796-0.86-17.777-1.505-27.095-1.69-6.502-0.133-12.943 0.133-19.323 0.563-1.679 0.113-3.338 0.266-5.007 0.41-5.407 0.492-10.772 1.147-16.067 2.038-1.004 0.164-2.007 0.266-3 0.451-6.4 1.147-12.718 2.57-18.924 4.28-0.758 0.215-1.505 0.471-2.263 0.676-5.796 1.659-11.5 3.553-17.101 5.693-0.584 0.215-1.178 0.43-1.772 0.666-76.851 30.198-132.71 105.032-129.72 209.029-0.143-0.031-0.256-0.072-0.389-0.113 1.669 57.958 21.545 124.918 66.55 198.38z" />
<glyph unicode="&#xe633;" d="M972.8 447.959c0-113.080-92.447-204.759-206.541-204.759-114.063 0-206.531 91.679-206.531 204.759 0 113.142 92.467 204.841 206.531 204.841 114.094 0 206.541-91.699 206.541-204.841zM257.731 652.8c-114.063 0-206.531-91.699-206.531-204.841 0-113.080 92.467-204.759 206.531-204.759s206.531 91.679 206.531 204.759c0 113.142-92.467 204.841-206.531 204.841z" />
<glyph unicode="&#xe634;" d="M638.198 636.795c-6.001-6.298-20.224-4.516-32.604-4.567-3.359-10.414-4.137-23.368-9.298-32.041 20.603-16.343 60.856-13.394 79.145-32.010 39.404 14.633 8.079 44.575 32.604 68.618 37.284 4.618 45.599-19.251 55.859-41.175-8.776-8.11-30.761-3.328-46.561-4.557-8.499-6.892-10.957-19.743-18.616-27.474 8.458-19.118 31.58-23.839 37.284-45.711 47.862 12.349 97.239 23.337 148.961 31.98 13.558 14.152 10.476 44.636 32.604 50.33 36.342-6.973 48.015-38.185 51.22-77.752-19.302-34.324-69.161-19.917-83.825 9.114-48.22-7.485-94.362-17.070-139.684-27.423-3.635-10.68 3.338-41.554-4.639-59.505 30.444-20.603 42.476 16.097 69.837 13.742 15.841-16.527 16.302-78.121-18.616-73.185-19.917 1.761-22.2 20.89-23.296 41.155-14.223-3.277-16.957 4.71-27.924 4.608-21.34-12.605-32-35.656-55.859-45.763 3.082-40.684 48.138-12.462 69.837-32.041-1.905-33.208-26.358-44.247-60.559-45.742-2.161 27.535 7.137 49.469-23.255 64.041-30.904-4.7-45.158-25.754-74.496-32.041-0.461-14.172 5.704-21.832 9.298-32 8.182-5.601 38.38 6.963 46.582-9.155-0.276-35.369-48.476-60.16-74.496-41.185-2.079 20.337 12.585 24.207 18.616 36.618-8.817 9.626-13.404 23.429-18.616 36.598-28.897-11.254-54.804-25.467-93.123-27.474 0.123-10.752-8.018-13.445-4.68-27.423-1.782-17.019 22.436-8.489 23.296-22.886 7.864-41.533-58.481-47.933-69.816-18.299-0.942 28.334 34.038 21.422 23.255 59.484-23.398 9.032-63.037 2.089-83.825 13.722-12.319-4.639-12.585-21.166-23.255-27.453 2.099-13.199 16.476-14.316 13.978-32.031-30.403-11.93-76.083-2.355-69.837 36.598 17.623 20.244 49.142 2.519 60.498 32.031-18.319 21.627-38.38 41.574-46.52 73.185-69.857-15.237-126.464-43.52-190.904-64.041-6.103-15.38-6.4-36.434-18.616-45.752-19.415-4.854-20.541-1.178-41.923 0-18.442 28.129-8.458 88.893 27.945 91.494 20.060 4.465 13.537-17.162 27.955-18.299 66.376 15.544 124.436 39.342 190.884 54.886-14.223 81.777 105.564 139.336-27.945 128.143-13.005 40.325 12.278 71.229 37.243 68.628 41.861-4.413 9.339-56.863 41.882-73.247 29.86 16.445 50.78 41.605 88.463 50.35 2.703 14.848-3.144 21.279-4.639 32.020-2.898 10.875-28.662-0.707-32.604 9.175 0 10.639 0 21.34 0 32 15.084 13.988 54.743 11.663 65.198-4.577 3.738-20.46-8.284-25.405-23.276-27.423 1.219-14.090 10.097-20.613 13.937-32.041 29.563 12.155 74.639 8.98 116.419 9.134 6.636 5.642 8.817 15.749 9.298 27.474 3.543 17.224-24.719 3.144-18.616 22.856 5.171 48.62 69.97 20.808 69.827-13.711zM675.441 430.93c21.484 12.442 12.124 55.194 13.978 86.938-57.354 46.868-94.956-88.893-13.978-86.938zM470.6 380.6c42.742-5.745 102.502 40.489 97.761 82.319-4.557 40.366-83.978 76.769-130.355 54.948-59.761-28.221-14.531-130.939 32.594-137.267z" />
<glyph unicode="&#xe635;" d="M432.855 837.427c60.047 45.926 139.54 71.373 223.764 71.373 61.501 0 121.18-13.681 172.564-39.485l0.123-0.051 0.123-0.061c13.261-5.99 21.555-19.2 21.555-33.341 0-3.471-0.502-7.014-1.556-10.557-3.164-10.414-10.824-18.964-20.9-23.235-4.68-1.976-9.636-2.959-14.541-2.959-5.775 0-11.561 1.352-16.804 4.035-32.338 16.456-68.936 26.778-107.315 30.577-30.505 5.96-61.942 9.062-93.757 9.062-74.342 0-145.777-16.568-207.421-47.432 12.667 15.012 27.31 29.143 44.165 42.076zM896.338 243.937c0 11.571-5.437 22.907-15.636 30.054-6.482 4.526-13.896 6.738-21.217 6.738-11.643-0.020-23.081-5.437-30.239-15.585-18.575-26.194-38.543-46.316-60.897-61.327-26.204-17.531-67.656-44.564-67.963-44.82l-0.020-0.031c-10.445-6.789-16.701-18.289-16.701-30.638l0.082-48.814-113.5 48.128c-4.536 1.915-9.441 2.939-14.438 2.939l-2.079-0.072c-8.52-0.492-17.121-0.717-25.641-0.717-126.136 0.072-241.377 51.395-301.036 135.281l-0.399 0.481 0.358-0.481c-1.157 1.659-2.54 3.185-4.024 4.669l-0.379 0.41-0.338 0.471c-23.521 34.765-35.758 72.428-35.738 111.729 0 69.929 38.717 133.007 100.26 178.227 61.624 45.292 146.258 73.175 239.503 73.175 67.901 0 133.499-14.889 189.839-43.151l1.843-0.881 0.082-0.020c28.16-14.377 50.78-32.758 66.458-53.637 15.698-20.828 24.422-44.227 24.422-68.209-0.041-38.861-22.344-75.796-61.481-104.008-43.418-31.324-101.478-48.374-163.564-48.374-15.677 0-31.365 1.137-46.582 3.328l-0.522 0.102h-0.020c-43.5 6.574-85.043 20.808-120.381 41.288l-0.758 0.369-0.184 0.092c-68.936 40.704-109.302 101.315-109.302 166.697 0 5.079 0.297 10.117 0.778 15.104-28.498-20.296-51.558-44.493-67.502-71.148 17.541-69.386 67.205-132.536 140.698-175.237l2.744-1.362 0.123-0.041c42.476-23.972 91.924-40.745 143.217-48.466l0.901-0.123h0.041c18.596-2.662 37.704-4.035 56.74-4.035 77.824 0 151.357 22.262 206.92 62.413 59.658 43.080 91.924 100.977 91.976 163.4 0.020 75.756-49.285 146.196-133.202 188.252l-1.987 0.952c-65.997 32.758-142.5 50.125-221.317 50.125-108.82 0.020-211.476-32.788-288.901-91.996-80.691-61.819-124.713-144.353-124.733-232.858 0-55.572 18.022-110.326 52.244-158.546 1.423-1.935 3.103-3.779 4.936-5.54l0.44-0.358 0.276-0.43c73.503-99.144 209.859-161.116 357.54-161.065 6.523 0 13.097 0.113 19.702 0.348l1.3 0.051 156.918-66.714c4.659-1.925 9.585-2.877 14.52-2.877 7.137 0 14.244 2.017 20.316 6.052 10.342 6.799 16.599 18.319 16.599 30.597l0.082 84.603 2.621 1.761c14.52 9.523 34.458 22.641 49.48 32.686 29.399 19.692 56.3 46.51 79.964 79.923 4.598 6.441 6.758 13.824 6.758 21.115zM596.562 404.408l-0.881-5.755 0.922 5.755 0.215-0.031c16.343-2.376 33.157-3.564 49.981-3.564 43.704 0 85.801 8.131 123.116 22.948 8.96 14.356 13.701 29.368 13.722 44.442 0 13.117-3.758 26.194-10.578 38.861-34.775-20.808-79.524-32.788-126.259-32.788-13.302 0-26.563 0.911-39.342 2.775-86.774 12.933-155.873 58.46-184.494 117.862-24.678-6.318-47.964-14.817-69.396-25.149 37.038-83.149 127.672-148.204 242.995-165.356zM911.36 601.661c0 66.949-42.977 129.372-116.357 166.902l-2.376 1.096-0.020 0.041c-58.378 29.266-126.095 44.769-195.922 44.769-95.724 0.020-185.979-28.846-254.085-80.978-22.999-17.562-42.578-37.1-58.583-58.061 69.878 36.956 151.583 57.303 237.015 58.276 24.34 4.823 49.705 7.342 75.643 7.342 58.982 0 115.825-13.076 164.495-37.847l1.925-0.911 0.102-0.061c33.075-17.336 56.822-41.39 67.717-68.301 30.996-27.628 53.801-60.303 66.816-95.887 8.847 20.367 13.629 41.728 13.629 63.621z" />
<glyph unicode="&#xe636;" d="M127.918-11.151h323.707v189.594l-97.28 66.693 23.818 35.287 73.462-50.166v146.954h100.557v-93.368l72.673 38.38 20.941-38.502-93.614-49.541v-52.92l140.902 70.533 18.719-37.949-159.621-80.056v-144.937h200.315v-1.649h143.585l-384.44 921.6z" />
<glyph unicode="&#xe637;" d="M972.8 842.24l-344.74-351.672-123.976 119.491-51.988-50.033c-27.617 78.705-104.561 135.352-194.99 135.352-113.633 0-205.906-89.467-205.906-199.803 0-109.414 90.481-198.205 202.762-199.741l249.231-242.074 286.321 278.149-27.31 28.334 210.596 162.99v319.007zM941.537 541.225l-461.455-363.162-173.763 153.897c-16.005-4.669-32.983-7.25-50.534-7.25-97.024 0-175.636 76.36-175.636 170.619 0 94.177 78.623 170.598 175.636 170.598 96.993 0 175.667-76.421 175.667-170.598 0-25.283-5.816-49.224-15.985-70.799l71.045-115.026 455.352 469.402-0.328-237.681z" />
<glyph unicode="&#xe638;" d="M972.8 733.358h-137.062c-26.552 0-56.105-35.113-56.105-82.893v-80.978h161.874v-161.915h-161.874v-405.012h-161.874v405.023h-242.811v-405.023h-161.874v405.023h-161.874v161.905h161.874v80.978c0 133.98 97.782 242.975 217.989 242.975h137.052v-160.082h-137.052c-26.563 0-56.115-35.113-56.115-82.893v-80.978h242.811v80.978c0 133.98 97.772 242.975 217.979 242.975h137.062v-160.082z" />
<glyph unicode="&#xe639;" d="M97.28 862.72v-552.96l46.080-46.080h506.88v-138.24h-506.88v-92.16l46.080-46.080h552.96l46.080 46.080v230.4l138.24 276.48v276.48l-138.24-317.614v363.694l-46.080 46.080h-599.040l-46.080-46.080zM235.52 401.92v368.64h414.72v-368.64h-414.72z" />
<glyph unicode="&#xe63a;" d="M724.060 806.103c11.981-27.208 19.743-72.397 8.161-105.482 47.36-40.438 63.631-138.742 40.776-219.075 67.502-5.151 147.896 2.478 199.803-18.237-48.517 6.236-114.78 18.473-177.357 14.213-11.858-0.809-29.43 0.451-28.57-16.23 72.448-5.693 144.425-11.878 203.909-30.444-58.993 9.636-130.601 24.31-203.909 26.358-30.28-59.75-91.208-89.119-175.329-95.304 9.042-19.671 26.358-27.167 30.587-58.819 6.308-47.288-9.871-116.541 6.093-148.060 7.66-15.104 20.142-15.503 28.559-28.416-20.603-24.381-71.69 2.734-77.496 28.416-9.964 43.981 15.176 112.169-12.216 141.978 1.935-47.964-11.346-115.343 2.038-158.198 5.274-16.855 20.5-23.357 16.312-38.554-95.764-9.728-55.747 123.945-71.393 202.844-14.449-1.024-8.1-21.637-8.151-30.433-0.41-77.046 15.77-182.723-67.277-172.411-2.427 16.189 11.141 21.699 16.312 36.485 15.145 43.356-2.836 107.95 4.106 160.266-31.693-23.89 3.328-107.315-16.312-150.088-11.315-24.617-47.78-35.328-75.438-24.34 3.604 18.33 22.528 15.37 30.556 32.451 11.223 23.808 0.082 58.102 4.086 93.297-58.665-11.704-104.172 1.7-126.444 38.543-9.964 16.538-12.431 36.045-24.474 50.698-11.981 14.664-31.13 16.64-36.68 36.495 72.653 17.49 75.438-74.772 140.687-77.056 20.009-0.727 30.413 5.775 48.927 10.127 5.181 23.265 16.271 40.612 32.625 52.767-81.193 11.11-148.244 36.393-179.425 97.321-73.81-3.635-141.353-13.486-203.909-28.375 56.781 20.623 126.812 28.017 201.882 30.444-4.424 26.583-43.203 19.272-67.277 18.248-44.739-1.987-101.059-7.547-136.622-14.223 51.548 18.381 123.884 16.087 193.72 16.23-21.361 66.97-13.957 173.353 32.625 212.972-13.199 33.27-9.103 87.685 8.151 113.592 52.009-2.335 83.548-25.016 116.224-46.664 40.52 11.52 83.128 17.254 138.65 14.203 23.347-1.29 47.636-11.786 65.219-10.127 17.254 1.618 36.27 20.982 53.023 28.375 21.821 9.636 40.284 13.312 65.249 14.213z" />
<glyph unicode="&#xe63b;" d="M762.88 906.015c-82.401-51.507-167.352-8.059-228.588 0-270.387 35.625-356.342-279.818-159.345-406.292-50.719-26.266-47.401-159.99 6.943-179.036-128-14.643-151.736-195.041-83.118-268.585 83.487-89.457 340.316-83.538 415.621 0 52.582 58.358 59.884 178.637 13.824 234.117-41.974 50.637-252.621 58.286-249.344 137.748 2.284 55.532 78.449 46.776 124.692 68.864 86.968 41.585 138.066 166.011 103.895 261.693 19.395 3.645 35.994 10.117 55.419 13.763v137.728zM430.387 616.765c-101.366 220.836 233.062 204.995 131.625 0-33.29-24.658-98.765-27.105-131.625 0zM617.411 182.938c8.98-99.031-191.549-103.424-214.743-34.468-19.517 58.102 4.782 74.568 62.331 89.539 65.188 16.978 146.391 11.172 152.412-55.071z" />
<glyph unicode="&#xe63c;" d="M504.719 258.939c99.738 0.829 170.66 50.719 212.736 149.647h2.202v-150.886c0-11.244-0.737-28.682-2.202-52.378-3-24.525-11.018-50.924-24.023-79.186-13.036-26.604-34.079-49.275-63.078-67.963-28.682-20.367-68.7-30.966-120.084-31.805-49.5 0-91.361 12.892-125.624 38.656-35.021 25.364-55.48 66.519-61.42 123.464h-43.54c4.465-73.984 28.078-126.781 70.881-158.382 41.677-30.331 94.556-45.517 158.597-45.517 63.263 0 112.599 11.848 147.958 35.553 34.98 22.856 60.099 51.343 75.377 85.432 15.258 34.079 24.381 66.509 27.341 97.26 2.263 30.771 3.359 52.797 3.359 66.099v622.285h-43.561v-137.175h-2.202c-16.763 50.289-44.483 88.32-83.22 114.104-39.076 25.354-82.258 38.042-129.516 38.042-82.299-1.669-144.824-33.464-187.617-95.406-43.94-61.512-65.884-137.39-65.884-227.594 0-92.703 20.838-169.39 62.515-230.083 42.107-61.952 105.748-93.338 191.007-94.167zM347.259 777.103c34.222 56.125 86.702 85.217 157.46 87.296 72.581-2.089 126.341-30.351 161.362-84.808 34.98-54.467 52.48-119.931 52.48-196.424 0-76.493-17.5-141.537-52.48-195.164-35.021-56.965-88.781-86.047-161.362-87.296-68.495 1.26-120.637 29.532-156.355 84.808-36.116 53.627-54.159 119.511-54.159 197.663-0.010 73.165 17.674 137.81 53.053 193.925z" />
<glyph unicode="&#xe63d;" d="M814.080 908.8h-249.395c-65.362 0-147.681-9.646-216.658-66.458-52.122-44.79-77.476-106.414-77.476-162.079 0-94.321 72.643-189.911 200.96-189.911 12.104 0 25.364 1.229 38.779 2.406-6.062-14.469-12.175-26.563-12.175-47.155 0-37.509 19.384-60.447 36.321-82.227-54.415-3.604-156.14-9.646-231.24-55.583-71.424-42.414-93.256-104.038-93.256-147.599-0.020-89.498 84.756-172.995 260.321-172.995 208.241 0 318.444 114.893 318.444 228.659 0 83.374-48.435 124.559-101.704 169.308l-43.602 33.843c-13.261 10.906-31.416 25.385-31.416 52.019 0 26.593 18.156 43.561 33.864 59.279 50.821 39.895 101.704 82.227 101.704 171.725 0 91.945-58.163 140.329-85.975 163.297h75.1l77.404 43.469zM707.625 168.663c0-74.988-61.778-130.591-178.022-130.591-129.516 0-213.084 61.686-213.084 147.507 0 85.934 77.496 114.872 104.1 124.559 50.883 16.957 116.244 19.364 127.119 19.364 12.124 0 18.176 0 27.904-1.188 92.037-65.3 131.983-97.987 131.983-159.652zM610.744 558.090c-19.384-19.313-52.101-33.843-82.381-33.843-104.079 0-151.276 134.277-151.276 215.276 0 31.457 6.062 64.082 26.604 89.498 19.384 24.187 53.258 39.926 84.756 39.926 100.465 0 152.576-135.465 152.576-222.515 0-21.811-2.468-60.477-30.28-88.34z" />
<glyph unicode="&#xe63e;" d="M972.8 484.987c0-78.674-30.751-151.542-82.995-211.466l-275.999 279.214 227.768 190.362c81.142-66.611 131.226-157.655 131.226-258.109zM384.051 405.494l429.363 358.851c-80.835 56.125-186.153 90.163-301.445 90.163-167.537 0-314.173-71.731-394.824-178.985l266.906-270.029zM176.364 231.916l181.248 151.47-260.096 263.148c-29.655-48.794-46.316-103.608-46.316-161.546 0-97.966 47.596-186.952 125.164-253.071zM866.15 248.596l-278.774 282.040-200.97-167.977-4.157-4.198-0.389-2.048-59.003-51.773h-2.488l-84.849-66.847c0-0.010 0-0.010 0-0.010l-32.287-27.607c6.39-4.598 13.578-8.817 20.296-13.138-15.514-42.496-38.615-90.481-73.288-140.237 80.978-35.215 173.302 18.688 238.193 72.233 39.301-8.755 80.701-13.578 123.505-13.578 142.356-0.010 269.681 51.794 354.212 133.14z" />
<glyph unicode="&#xe63f;" d="M968.796 537.334c0 202.895-206.295 367.309-460.718 367.309-254.587 0-460.882-164.413-460.882-367.309 0-176.23 155.812-323.482 363.715-359.045-4.792-58.798-16.978-125.809-42.629-195.236 101.693 27.085 190.607 117.934 252.15 198.031 200.12 39.997 348.365 184.34 348.365 356.25zM705.649 311.112c-6.154-1.167-12.36-2.13-18.657-2.785-6.636-0.645-13.353-1.096-20.152-1.096-5.919 0-11.735 0.471-17.521 0.952 72.233 51.988 119.276 135.148 119.276 229.151 0 103.25-56.658 193.413-141.23 243.507 12.831 2.488 25.969 3.994 39.465 3.994 122.348 0 221.501-106.936 221.501-238.858 0.010-117.545-78.879-215.050-182.682-234.865z" />
<glyph unicode="&#xe640;" d="M298.312 906.404c6.328 0.829 12.595 1.649 18.862 2.396 29.051-3.564 43.919-26.296 46.316-65.29 3.871-62.546-20.255-132.915-31.58-176.906 105.964-23.511 191.468-76.8 245.043-171.776 24.32-43.162 45.916-93.041 48.445-156.006 0.338-9.574-4.004-23.706-1.997-32.123 2.202-9.523 16.394-20.91 24.115-28.713 23.327-23.757 56.32-55.009 84.572-64.942 51.446-18.094 124.887 13.507 174.131 23.849 32.983 6.912 54.845 3.625 64.584-21.996 0.666-5.489 1.331-10.957 1.997-16.445-9.738-36.721-44.851-58.644-80.579-77.076-102.953-53.033-271.964-79.964-409.385-78.316-25.846-22.467-61.501-37.13-103.485-46.653-20.787-2.673-41.656-5.345-62.444-8.018-51.845-1.976-112.097-4.997-141.548 24.248-13.466 13.373-23.532 38.451-18.002 62.915 8.53 37.949 54.784 60.918 100.362 72.079-1.597 12.749-11.192 23.634-16.261 37.284-19.722 52.204-13.793 119.685 4.137 159.775-11.264 4.178-25.057 4.997-36.454 8.98-4.332-12.401-3.195-22.825-9.462-31.519-25.18-35-92.436-19.743-88.433 35.625 2.468 33.372 50.852 60.088 77.711 76.667 14.316 8.837 34.12 19.333 51.046 29.317 16.589 9.81 35.994 23.245 39.721 36.936 4.127 15.012-2.662 38.574-7.404 49.121-7.137-0.676-10.127-9.175-14.531-14.039-13.926-15.36-30.126-30.566-47.514-45.507-22.395-19.169-47.319-40.755-76.636-49.254-36.915-10.691-67.574 4.659-80.108 39.731-0.737 6.482-1.536 12.933-2.335 19.374 15.196 78.172 78.838 117.637 148.142 152.494-27.525 31.058-82.237 79.616-88.76 147.804-2.796 30.157 8.796 57.549 31.252 70.707 40.253 23.706 72.581-16.722 97.096-34.529 11.868 29.665 27.73 56.105 59.382 69.806zM502.17 551.977c-43.059 43.028-102.226 76.585-171.54 88.648-13.599 2.417-23.859 3.441-26.317 10.281-1.669 4.588 2.396 17.961 5.396 28.027 14.592 48.507 27.249 85.914 29.983 141.824 1.536 30.986-4.721 76.268-36.844 60.426-26.061-12.8-38.994-44.247-47.79-68.291 25.19-22.477 70.779-132.444 1.341-131.758-49.787 0.543-37.724 96.532-27.464 128.399-11.459 10.353-17.93 20.285-30.126 29.532-8.397 6.38-21.852 19.732-42.783 12.677-12.8-4.26-20.193-21.996-21.453-30.013-1.874-12.206 0.594-26.112 2.929-36.055 10.138-43.561 48.445-88.238 73.841-110.305 8.929-7.813 30.259-13.548 29.727-26.511-0.276-10.353-28.529-17.060-42.793-23.706-19.323-9.032-32.85-18.289-42.65-25.149-27.187-19.118-52.777-39.117-67.574-63.304-6.134-10.138-15.462-27.955-12.134-45.486 4.004-21.166 22.794-32.614 47.524-27.269 26.061 5.55 55.91 30.147 81.91 54.467 12.39 11.571 20.654 18.432 34.253 33.229 9.728 10.476 22.395 33.987 34.386 33.229 12.063-0.829 25.057-34.253 27.73-46.51 8.202-36.321-3.533-60.027-17.603-73.533-19.794-18.975-51.374-31.375-82.422-50.002-19.794-11.868-66.714-38.308-66.048-63.037 0.666-28.508 37.847-29.665 45.517-10.834 4.997 12.401-6.728 32.758 2.601 39.741 9.257 6.984 27.986-2.611 35.85-4.444 15.462-3.635 28.129-6.717 36.393-7.537 17.787 20.48 35.451 60.836 72.243 60.836 31.918 0 51.517-53.176 28.252-75.151-22.057-21.043-56.781-13.097-85.443-12.544-27.853-43.991-22.917-144.087 13.926-187.72 31.928 2.929 61.583 2.806 88.576-0.758-60.324 83.722-22.661 211.507 77.363 225.208 88.904 12.257 143.616-47.831 151.153-55.081-7.219 104.407-45.199 173.67-99.912 228.475zM259.256 705.792c14.868 0.829 11.663 23.030 7.26 37.345-4.669 15.288-12.8 26.368-17.725 37.13-0.276 0.881-0.471 1.71-1.731 1.29-4.127-15.739-9.329-77.066 12.196-75.766zM284.447 364.8c19.333-0.266 45.445-2.806 57.713 10.476 2.202 11.663-3.195 23.245-9.39 29.051-25.262-0.758-38.39-22.047-48.323-39.526zM453.857 354.714c-84.439-14.039-111.094-123.392-59.781-188.14 10.598-13.363 38.257-28.57 37.181-39.188-1.26-13.087-14.060-8.765-24.32-6.175-31.928 8.151-68.25 12.964-101.427 9.738 34.857-41.185 97.894-60.017 165.54-63.652 23.194 18.975 32.389 61.112 13.455 95.703-7.26 13.23-19.057 18.36-15.268 28.375 4.065 10.619 20.060 6.103 33.055 7.27 56.443 5.202 82.842 50.831 94.566 95.58-38.646 33.976-75.561 71.741-143.002 60.488zM505.17 174.807c20.859-31.519 11.53-79.401 0.532-101.54-0.072-0.195-3.738-6.369-0.737-6.175 143.084 5.151 322.355 29.737 414.249 98.673 12.134 9.042 33.587 27.126 28.928 41.585-6.533 20.060-60.979-2.13-78.766-7.055-25.989-7.127-61.983-14.305-90.962-16.159-80.108-5.151-114.555 47.872-158.28 88.791-1.935 2.202-3.871 4.106-4.608 0.952-16.456-49.265-44.851-88.996-110.356-99.072zM287.181 111.913c-8.53 8.765-9.196 17.684-20.931 14.049-38.646-12.145-87.101-28.426-86.374-65.71 0.41-24.801 20.265-37.745 34.662-42.547 27.853-9.38 72.305-6.984 113.951-3.564 43.858 3.564 87.501 14.326 112.763 31.109-60.969 7.946-115.753 27.136-154.071 66.662z" />
<glyph unicode="&#xe641;" d="M607.078 493.742c-5.13-56.996 10.24-134.4-7.741-178.412-263.588-31.027-227.942 534.026 0 488.755-39.117-181.914 173.404-172.923 178.35-46.531 3.635 94.802-103.373 138.824-162.857 147.395-178.012 25.661-401.285-76.616-426.445-310.344-24.986-232.1 66.355-305.275 240.343-387.912-88.832-254.341 243.773-268.667 356.669-139.663 84.613 96.645 33.823 271.759 54.282 426.711-77.527 0-155.085 0-232.602 0zM537.272 113.562c-72.151 41.984-3.83 133.612 54.292 139.663 9.011 1.26 13.814-1.741 15.524-7.782 6.769-74.004-13.783-120.699-69.816-131.881z" />
<glyph unicode="&#xe642;" d="M51.2 908.8v-921.6h921.6v921.6h-921.6zM552.96 377.057v-226.017h-81.92v226.017l-201.318 398.623h94.843l147.231-300.124 153.088 300.124h88.914l-200.837-398.623z" />
<glyph unicode="&#xe643;" d="M763.095 908.206c-65.843 2.785-98.243-4.024-137.277-23.532-51.661-25.713-83.661-78.336-112.742-144.671-39.834 69.765-63.375 117.944-121.559 146.678-35.318 17.5-71.537 27.013-145.818 17.132-58.563-13.384-120.678-57.108-134.236-156.334-10.056-35.246-2.877-109.998 46.295-183.409 14.776-22.098 31.846-53.187 56.535-86.641 49.039-66.57 113.541-144.896 147.159-197.427 84.49-132.116 97.556-154.276 123.177-214.139 4.25-8.407 25.559-70.267 29.85-78.674 24.883 112.712 119.869 271.411 236.052 408.146 118.559 139.52 207.329 299.080 145.961 410.102-26.87 57.119-75.162 87.153-133.396 102.769z" />
<glyph unicode="&#xe644;" d="M940.462 503.46l8.346 161.792h-309.842l-46.275-250.911 1.249-0.164c-3.901-7.864-6.82-16.374-8.622-25.385v-40.008h30.7v-59.515c31.488-33.853 85.176-58.522 158.996-58.522 116.47 0 197.786 73.605 197.786 178.985 0 32.87-11.018 66.662-32.338 93.727zM778.24 270.889c-94.403 0-151.685 48.568-151.685 96.215 0 32.092 21.996 61.42 60.948 61.42 27.044 0 40.776-17.879 40.776-38.963 0-11.448-4.577-16.036-4.577-25.201 0-12.831 5.96-21.545 27.505-21.545 30.239 0 44.913 31.631 44.913 63.252 0 27.945-11.008 49.029-34.826 49.029-17.408 0-26.583-6.871-30.249-17.869l-87.982 11.448 32.543 176.425h234.158l-4.588-88.904h-155.341l-8.714-46.735c10.086 15.575 42.168 28.867 83.415 28.867 73.308 0 111.35-56.361 111.35-108.605 0-76.974-55.46-138.834-157.645-138.834zM625.469 388.925v252.037h-170.097v-77.896h-56.361v-149.473h30.7v-24.658h-30.7v-149.484h257.157v149.473h-30.7zM495.514 600.822h89.815v-59.566h-89.815v59.566zM616.028 279.593h-176.876v69.192h30.7v104.94h-30.7v69.202h146.176v-174.141h30.7v-69.192zM439.153 279.593v69.192h30.065v40.151h-30.7v58.839c0 68.598-47.596 120.33-110.715 120.33-18.36 0-35.133-3.574-50.135-9.595v106.742h-226.468v-149.484h30.249v-126.843h-30.249v-149.484h418.007v40.141h-30.054zM429.066 279.593h-159.918v69.192h13.742v68.291c0 21.084-1.382 40.325-13.742 40.325-11.919 0-23.828-15.124-31.631-45.824v-62.792h13.292v-69.192h-159.468v69.192h30.249v207.124h-30.249v69.202h146.176v-154.429c15.575 29.327 47.657 57.283 90.276 57.283 40.776 0 70.574-34.365 70.574-80.189v-98.99h30.7v-69.192z" />
<glyph unicode="&#xe645;" d="M491.52 826.88c-254.495 0-460.8-154.88-460.8-345.938 0-102.769 59.781-195.031 154.573-258.396-8.643-48.282-25.068-106.537-56.351-153.426 40.684 0 143.186 47.524 215.777 83.937 46.121-11.633 95.447-18.033 146.801-18.033 254.495 0 460.8 154.88 460.8 345.917 0 191.058-206.305 345.938-460.8 345.938zM712.049 476.017c-1.567-6.574-4.434-13.578-8.929-21.074-8.294-15.739-19.517-29.665-32.963-41.103-64.686-67.83-178.852-143.739-178.852-143.739s-114.166 75.981-178.862 143.739c-13.445 11.428-24.658 25.364-32.973 41.103-4.495 7.496-7.352 14.51-8.919 21.074-4.577 13.722-7.076 28.447-7.076 43.745 0 76.677 61.911 138.865 138.322 138.865 51.415 0 89.364-55.532 89.364-92.559 0 37.028 19.231 92.559 89.651 92.559 76.411 0 138.332-62.188 138.332-138.865 0-15.299-2.509-30.024-7.096-43.745z" />
<glyph unicode="&#xe646;" d="M747.786 908.78c21.043 0 42.24 0 63.365 0 21.944 1.393 55.747-62.054 46.49-89.149-5.755-17.838-52.992-25.917-63.365-39.24-17.951-22.856-11.203-93.696-11.203-141.322 0-125.573 0-247.634 0-381.143 0-21.34-2.775-63.949 3.799-70.595 6.769-6.748 31.119-2.406 40.837-5.55 22.415-7.209 49.551-50.545 31.857-79.923-4.905-7.946-27.412-13.117-42.977-20.429-36.844-17.551-100.198-37.693-152.699-33.444-29.737 2.12-77.332 45.916-72.622 78.080 2.038 13.855 13.804 21.33 29.819 27.904 10.752 4.25 35.471 1.843 44.626 11.090 11.766 11.54 2.703 60.047 1.782 87.235-0.358 16.609 0.379 28.17 0 48.486 0 14.51 1.475 40.202-1.782 44.728-8.049 10.353-76.585 2.038-91.218 0-69.458-10.26-106.578-15.237-164.014-33.444-17.316-5.642-57.498-12.483-69.089-30.044-11.93-18.289-2.304-79.739 0-107.735 1.126-12.954-3.686-37.704 2.048-46.387 7.598-12.104 38.994-6.636 46.295-9.226 18.053-6.287 44.452-34.007 41.216-61.46-5.847-47.483-121.139-64.307-177.172-68.833-21.576-1.567-29.563-2.12-44.728 1.659-24.637 6.932-56.586 40.284-53.996 65.229 2.13 20.255 30.648 32.082 50.565 39.178 6.308 2.314 18.596 3.144 22.026 7.404 7.598 9.062 2.98 47.575 0 70.492-8.243 68.291-9.994 150.897-11.11 221.286-1.096 83.722-5.56 142.019-5.56 228.884 0 24.402 2.335 64.399-3.615 72.479-7.035 8.735-29.532 7.168-42.885 12.892-23.245 9.994-34.816 24.863-46.756 53.965 0 5.458 0 11.151 0 16.64 19.999 39.086 70.482 47.299 124.846 57.764 76.851 14.694 151.306 28.908 173.445-35.348 4.465-12.8 7.229-34.417 0-46.387-13.425-22.211-65.29-17.408-76.411-35.533-4.823-7.465-3.881-35.297-3.881-59.464 0-72.479-9.165-123.034-3.615-196.987 0.737-10.803 4.26-44.708 11.305-48.282 11.018-5.724 30.833 3.574 40.929 5.396 73.165 15.862 116.695 26.952 197.54 35.389 20.838 2.355 71.496 2.744 81.971 11.141 15.36 12.841 5.908 50.637 3.615 68.844-6.4 55.624-5.663 95.16 0 148.767 2.304 20.408 8.796 59.781-1.782 70.717-6.738 6.892-33.126 7.813-41.021 11.182-28.15 11.786-61.85 40.837-50.196 81.828 2.97 10.988 19.845 19.845 31.498 25.856 41.912 21.873 91.546 25.201 141.824 35.41z" />
<glyph unicode="&#xe647;" d="M954.767 401.183l-6.636 10.424c-10.598 15.585-21.146 31.16-37.069 41.564-13.24 9.114-29.143 15.585-43.663 22.098 41.021 19.497 69.089 46.766 82.35 81.848 9.267 28.611-7.67 51.958-7.67 75.346v2.591c0 26.030-35.994 42.895-69.089 51.999-19.917 3.891-41.871 3.891-61.716 2.632l-43.489-9.114 14.746 32.461c13.21 41.605 9.339 81.859-13.169 119.572l-3.953 6.451c-19.876 32.522-48.988 51.999-88.73 62.382-41.021 10.414-75.95 6.523-113.019-12.974-37.13-19.528-72.141-49.418-72.141-88.351v-2.591l-4.68-9.114-6.984 9.114-14.1 23.347c-21.197 32.502-48.077 51.999-81.203 61.112-29.143 6.482-53.125 3.881-78.295-9.114-27.771-16.865-43.807-42.926-50.442-79.268-6.636-37.683-0.020-74.086 19.845-110.428l9.206-13.036-31.764 10.445c-39.741 9.114-76.8 3.891-113.859-15.596-38.431-19.476-62.249-46.787-78.162-84.46-14.561-36.383-13.21-71.424 5.315-103.946 7.956-14.295 19.866-25.989 30.433-33.802 15.913-15.575 35.779-24.678 59.607-28.57l9.236-2.591-19.825-16.937c-18.565-15.616-29.123-35.082-35.748-54.559-6.605-23.378-3.963-46.776 9.267-68.905 6.636-10.373 13.24-19.395 23.839-25.979 10.598-9.032 23.828-15.555 39.7-16.876 29.143-6.523 59.607-6.523 92.672 3.922l-23.859-39.004-6.564-16.886c-13.261-41.513-9.318-77.916 10.557-115.589 9.277-14.367 19.866-27.331 30.464-39.014 15.882-14.295 35.707-23.398 59.587-29.921 39.649-10.353 79.391-9.011 117.832 10.445 37.069 19.476 60.856 50.708 72.806 89.641l1.28 7.762c25.18-27.228 49.009-45.435 75.52-51.948 26.46-7.772 52.931-6.513 76.769 9.114 22.508 13.015 38.39 35.082 46.326 62.392 6.605 28.57 6.605 57.129 0 89.549 13.21-9.021 26.481-15.534 42.342-19.395 42.342-13.025 79.452-11.684 116.511 7.782 35.748 19.456 59.587 50.708 71.485 90.962 10.639 38.984 7.997 76.646-11.868 113.009zM762.798 618.179l15.862 6.523c23.88 10.353 46.346 12.984 70.226 10.353 22.426-2.591 38.39-12.943 46.295-28.57l5.284-16.855-2.642-13.025c-9.247-23.388-29.143-41.574-62.208-55.859-13.24-6.461-27.781-9.093-43.663-11.643l-162.857-19.548-2.683 9.114-2.642 3.922 5.325 6.523 133.704 109.066zM537.692 781.906c6.615 25.979 25.18 45.466 49.009 58.47 23.839 12.995 50.309 15.616 75.448 6.513 27.843-6.513 47.667-20.797 59.628-42.885 6.605-13.005 10.547-28.6 10.547-45.486l-3.942-28.559c-5.284-14.295-11.919-27.31-19.845-39.014l-119.163-142.92c-11.899 9.093-25.139 15.606-38.42 22.088l-13.261 146.811-1.28 51.999 1.28 12.984zM311.378 778.025c1.27 23.378 10.506 38.973 26.429 48.056 7.956 6.513 19.866 6.513 30.433 1.29 23.859-6.513 43.735-23.378 59.566-55.869 6.636-13.005 13.24-25.989 15.923-41.564l26.46-153.364-19.825-6.482-117.873 126.065-6.605 12.984c-10.598 23.398-17.193 45.486-14.51 68.884zM116.716 502.569c-10.578 19.456-10.578 38.932-2.621 58.429 9.257 24.73 26.46 44.186 51.569 54.589 23.88 13.005 47.667 16.865 74.168 10.414l35.748-14.295 116.511-83.159c-10.588-13.025-17.224-25.969-21.217-39.004l-190.648-23.378-13.21 2.591c-23.818 3.912-39.731 14.264-50.299 33.812zM491.52 119.245l-4.68-13.025c-9.277-23.378-26.849-42.865-50.668-53.207-23.849-13.025-49.9-15.616-73.667-9.175-26.552 6.523-46.797 22.118-57.395 42.926-6.584 12.943-12.052 28.57-12.052 44.186l6.42 29.829c2.683 13.025 9.298 26.040 19.876 36.413l111.165 129.976c13.24-6.523 29.819-13.025 44.411-14.356 2.611-44.134 16.589-90.993 16.589-141.599v-51.968zM441.047 379.044c-17.203 15.616-26.429 37.745-26.429 61.123 0 23.398 9.226 42.865 26.429 61.082 15.913 14.275 37.1 23.378 62.249 23.378 23.839 0 46.346-9.114 60.948-23.378 18.463-18.217 26.46-37.683 26.46-61.082 0-23.378-7.997-45.496-26.46-61.123-17.244-16.886-37.11-25.907-60.948-25.907-25.149-0.010-46.336 9.011-62.249 25.907zM686.029 151.726c-2.642-23.45-10.598-40.335-26.522-46.848-9.226-6.431-19.825-6.431-30.423-5.192-25.149 6.523-45.025 25.989-59.566 57.221l-15.923 42.865-19.825 113.029 22.467 7.844 17.244 9.021 55.613-55.798 34.427-41.605 6.605-12.964c11.899-22.118 18.545-42.926 15.903-67.574zM913.736 303.759c-6.636-26.051-22.518-45.517-45.056-55.869-23.788-13.025-47.667-15.626-74.097-6.523-15.923 3.85-26.501 10.445-35.748 20.787l-139.028 113.029 9.277 19.476 3.994 15.636 149.586 13.005 52.941 1.26 13.281-1.26c19.794-6.523 38.39-18.217 48.927-37.683 13.24-14.356 19.876-33.823 19.876-55.962l-3.953-25.897z" />
<glyph unicode="&#xe648;" d="M706.56 13.056c-56.32 4.055-92.836 12.483-109.496 25.364-16.66 12.82-24.996 46.121-24.996 99.758v619.622c0 51.241 8.335 84.214 24.996 98.959s53.176 23.48 109.496 26.204v25.836h-409.6v-25.836c56.32-2.724 92.815-11.469 109.517-26.204 16.671-14.735 24.996-47.718 24.996-98.959v-619.622c0-53.637-8.325-86.938-24.996-99.758-16.701-12.882-53.197-21.299-109.517-25.364v-25.856h409.6v25.856z" />
<glyph unicode="&#xe649;" d="M512 908.8c-254.484 0-460.8-206.316-460.8-460.8s206.316-460.8 460.8-460.8 460.8 206.316 460.8 460.8-206.316 460.8-460.8 460.8zM512 79.36c-203.581 0-368.64 165.059-368.64 368.64s165.059 368.64 368.64 368.64 368.64-165.059 368.64-368.64-165.059-368.64-368.64-368.64zM680.755 324.516c2.959-39.199-26.46-74.885-65.761-79.78-39.24-4.864-73.564 22.938-76.503 62.136-3 39.148 26.522 74.885 65.761 79.739 12.421 1.526 24.3-0.184 34.918-4.495v192.461l-184.32-34.284v-240.435h-0.358c0.082-0.676 0.256-1.3 0.256-1.976 2.98-39.199-26.46-74.844-65.7-79.739-39.322-4.864-73.523 22.948-76.503 62.095-3.021 39.199 26.419 74.916 65.7 79.739 12.421 1.577 24.3-0.184 34.918-4.536v277.197l267.756 45.763-0.102-1.219v-350.72h-0.358c0.123-0.686 0.246-1.26 0.297-1.946z" />
<glyph unicode="&#xe64a;" d="M128.020 81.603v732.805c0 52.152 37.161 94.392 83.077 94.392 45.875 0 83.057-42.24 83.057-94.392v-412.365l207.657 223.57c24.044 26.092 43.715 42.24 73.206 42.24 44.81 0 73.226-40.991 73.226-84.47 0-32.297-15.288-57.149-38.236-81.971l-131.144-127.939 156.303-239.708c14.213-22.364 20.767-39.752 20.767-60.856 0-50.924-36.086-85.699-77.619-85.699-32.778 0-52.449 12.421-72.131 43.469l-145.367 227.277-66.662-68.321v-108.042c0-52.183-37.181-94.403-83.057-94.403-45.916 0.010-83.077 42.23-83.077 94.413zM796.201 193.116c55.132 0 99.82 44.943 99.82 100.372s-44.687 100.383-99.82 100.383c-55.142 0-99.83-44.954-99.83-100.383s44.687-100.372 99.83-100.372z" />
<glyph unicode="&#xe64b;" d="M407.685 270.449c4.301-19.855-16.097-40.899-30.382-43.991-6.359-1.372-11.018 0.942-11.878 4.905s3.215 8.182 2.181 12.954c-3.103 14.295-65.659 61.43-183.255 151.532-7.649-122.184-8.366-188.006-9.83-196.639-2.355-12.165-14.653-20.623-28.938-23.716-12.708-2.755-22.385 3.482-25.119 16.179-4.137 19.057 3.584 167.875 26.010 444.559-0.87 3.963-2.345 6.973-2.509 7.762-7.219 33.352 8.837 55.132 30.29 59.761 13.496 2.918 34.284-0.901 37.366-15.186 2.929-13.507-8.847-85.883-19.988-218.808 46.428 77.384 114.176 167.69 198.226 274.831 12.36 15.964 22.098 24.73 31.621 26.798 8.745 1.894 14.541-1.853 16.763-12.165 1.72-7.936-2.12-17.091-10.957-22.333-46.705-60.805-113.183-160.819-203.295-297.544 120.402-76.186 178.719-145.879 183.695-168.899zM891.331 524.728c19.405-89.743-17.336-184.975-66.58-195.625-19.057-4.127-40.52 2.867-50.299 17.377-1.597-111.739 0.338-174.51 3.604-189.594 1.884-8.745 9.564-9.585 10.24-12.739 1.884-8.745-5.458-16.978-13.425-18.698-19.036-4.116-31.877 1.413-35.502 18.094-2.857 13.23-9.236 116.849-0.84 305.029-10.035-13.629-21.699-23.142-34.877-28.457-5.335-86.784-33.536-136.94-79.596-146.903-30.781-6.666-57.18 7.26-68.639 40.294-13.302-29.583-26.921-45.189-48.978-49.961-29.379-6.359-51.139 9.718-58.020 41.482-7.219 33.352-5.202 77.865 4.721 135.69l-22.804 1.731c-9.861-73.626-20.378-113.316-37.059-116.931-5.56-1.208-11.182 1.751-12.902 9.667-1.198 5.571 14.182 49.654 16.138 129.034-9.964 3.676-15.739 7.414-17.285 14.561-3.256 15.094 12.739 40.991 36.557 46.141 11.121 2.396 21.402-2.847 23.46-12.38 1.044-4.762 1.157-13.036 0.655-22.292l27.945-2.273c2.417 7.997 6.779 14.766 12.718 21.873 4.424 2.621 8.223 4.27 9.8 4.608 11.919 2.57 30.044-4.321 32.276-14.633 1.72-7.936-2.304-16.302-11.54-27.433-21.76-64.573-27.003-117.238-18.924-154.563 2.918-13.507 10.199-20.244 15.759-19.036 13.998 3.021 29.020 27.781 41.779 74.127 1.72 28.006 8.038 61.46 20.582 94.812 10.383 28.846 23.521 45.005 39.404 48.435 10.322 2.243 20.081-0.645 25.958-8.52 4.577 1.823 8.376 3.482 13.138 4.506 21.463 4.639 42.916-13.998 52.5-54.313 26.245 15.104 32.604 41.052 40.284 54.18 3.881 79.462 6.216 112.159 23.501 115.896 8.724 1.884 21.217-2.058 23.276-11.592 2.396-11.11-4.915-42.629-7.24-97.167 16.876 41.062 31.037 64.082 47.698 67.697 25.436 5.509 52.531-16.077 62.515-62.126zM660.675 457.37c-3.103 14.295-10.363 21.023-19.098 19.128-23.839-5.161-55.040-87.562-42.496-145.531 3.604-16.671 10.885-23.409 21.996-21.002 26.214 5.673 52.132 89.426 39.598 147.405zM851.548 520.274c-3.604 16.681-10.097 23.603-17.244 22.047-12.698-2.755-45.445-58.88-55.276-163.256 4.864-14.735 18.995-22.487 31.703-19.732 21.443 4.628 31.621 26.778 39.24 68.332 6.738 38.031 6.4 70.38 1.577 92.611z" />
<glyph unicode="&#xe64c;" d="M788.818 174.684c-95.99 0.389-147.139 47.657-182.692 130.939l-10.127 22.733-87.675 201.155c-29.030 71.209-101.181 119.316-182.548 119.316-110.1 0-199.424-89.938-199.424-200.858 0-110.93 89.324-200.868 199.424-200.868 76.8 0 143.626 43.725 176.927 107.837l35.471-82.309c-50.319-61.778-126.822-101.11-212.408-101.11-151.634 0-274.565 123.689-274.565 276.449 0 152.668 122.931 276.511 274.565 276.511 114.463 0 206.858-61.532 253.798-170.578 3.604-8.458 49.654-116.972 89.856-209.316 24.904-57.17 46.111-95.068 114.975-97.413 67.645-2.335 114.074 39.117 114.074 91.525 0 51.2-35.4 63.508-95.171 83.517-107.397 35.635-162.898 71.434-162.898 157.215 0 83.671 56.535 139.469 148.419 139.469 59.863 0 103.045-26.808 132.966-80.261l-58.716-30.198c-22.129 31.181-46.5 43.489-77.537 43.489-43.141 0-73.882-30.198-73.882-70.369 0-57.016 50.616-65.628 121.498-89.037 95.334-31.273 139.653-66.98 139.653-156.16 0-93.645-79.8-161.833-183.982-161.679z" />
<glyph unicode="&#xe64d;" d="M314.952-12.8v348.713l2.714 6.472h10.097l1.894-3.195c37.786-62.188 111.217-99.338 196.485-99.338 145.859 0 293.059 106.537 293.059 344.535 0 191.058-112.108 324.413-272.701 324.413-101.192 0-179.968-42.301-227.686-122.399l-4.516-3.113h-9.779l-6.728 112.015h-92.989c2.785-63.324 5.171-127.222 5.171-206.838v-701.266h104.98zM314.952 627.681c0 12.759 2.714 28.314 8.294 48.671 21.596 88.771 98.324 150.804 186.624 150.804 118.764 0 201.656-102.042 201.656-248.156 0-157.245-80.763-258.877-205.763-258.877-88.054 0-162.56 57.784-185.149 143.77-3.85 14.070-5.663 30.106-5.663 50.401v113.388z" />
<glyph unicode="&#xe64e;" d="M972.8 348.396v-340.716h-197.53v317.901c0 79.862-28.57 134.359-100.076 134.359-54.579 0-87.060-36.731-101.345-72.253-5.212-12.708-6.554-30.382-6.554-48.169v-331.837h-197.591c0 0 2.662 538.419 0 594.207h197.581v-84.224c-0.399-0.635-0.922-1.311-1.3-1.925h1.3v1.925c26.245 40.428 73.124 98.181 178.053 98.181 130.007 0 227.461-84.931 227.461-267.448zM163.011 888.32c-67.594 0-111.811-44.339-111.811-102.646 0-57.037 42.936-102.717 109.189-102.717h1.321c68.905 0 111.759 45.67 111.759 102.717-1.3 58.307-42.854 102.646-110.459 102.646zM62.935 7.68h197.519v594.207h-197.519v-594.207z" />
<glyph unicode="&#xe64f;" d="M899.86 902.574h-785.439c-37.612 0-68.096-29.553-68.096-66.028v-789.514c0-36.475 30.495-66.058 68.096-66.058h785.439c37.612 0 68.055 29.594 68.055 66.058v789.514c0 36.465-30.444 66.028-68.055 66.028zM325.724 131.133h-139.244v416.092h139.244v-416.092zM256.113 604.068h-0.932c-46.694 0-76.964 31.939-76.964 71.916 0 40.786 31.16 71.854 78.776 71.854 47.626 0 76.923-31.058 77.844-71.854 0-39.987-30.208-71.916-78.725-71.916zM827.668 131.133h-139.203v222.618c0 55.951-20.173 94.116-70.513 94.116-38.513 0-61.368-25.754-71.404-50.606-3.727-8.888-4.639-21.299-4.639-33.71v-232.407h-139.182c0 0 1.823 377.068 0 416.092h139.192v-58.993c18.483 28.344 51.497 68.782 125.43 68.782 91.617 0 160.317-59.433 160.317-187.3v-238.592zM541.020 486.922c0.246 0.389 0.573 0.86 0.901 1.311v-1.311h-0.901z" />
<glyph unicode="&#xe650;" d="M938.557 172.175c-0.164 39.26-27.699 40.202-60.6 53.361l-153.6 61.522c-2.673 1.044-5.304 2.161-7.905 3.318v0.061c-27.31 12.36-51.415 29.563-60.252 41.656l-0.348 0.389-0.102 0.195c-0.502 0.778-1.044 1.577-1.516 2.345l-0.348 0.635-0.061 0.164-0.317 0.389v0.020c-4.096 6.154-8.233 8.909-11.725 7.721l-0.215-0.092-0.102-0.031-0.031-0.020-0.195-0.082-0.133-0.031-0.195-0.174c-4.157-2.161-3.328 0.205-5.018 4.782-4.157 11.223-11.018 32.604-12.052 35.748-1.597 5.857-5.888-9.247-4.905 7.045l1.751 29.481c2.826 3.041 5.11 5.519 6.666 7.229 10.004 11.448 10.701 41.677 15.718 49.050 5.018 7.383 15.063 8.97 25.088 43.284 10.035 34.345 22.272 83.384 9.37 84.183-3.174 0.215-6.758-1.843-10.476-5.11 2.263 12.605 7.045 41.206 8.131 62.31 1.434 27.802-3.174 99.103-18.985 125.225-9.882 16.333-29.829 32.512-49.705 45.128-11.909 7.598-23.788 13.875-33.505 18.135-28.948 12.841-120.218 6.943-151.122 0-35.215-7.885-59.894-29.983-75.663-56.115-15.749-26.163-22.743-104.581-21.371-132.383 0.666-12.472 8.131-33.516 10.025-46.356 1.075-6.697 2.068-6.748 2.908-11.54-1.321 0.502-2.591 0.778-3.779 0.696-12.913-0.799-0.707-49.838 9.318-84.183 10.056-34.314 20.050-35.901 25.088-43.284 5.018-7.373 5.724-37.601 15.79-49.050 1.587-1.812 4.004-4.454 7.004-7.649l1.915-24.044 3.379-13.384c-1.546 3.85-4.598 6.328-6.031 1.311-4.321-13.128-8.643-26.266-12.964-39.393-0.451 0.645-1.157 1.065-1.966 1.116-4.188 3.697-9.81 0.481-14.93-8.049-7.588-12.646-32.707-30.833-61.839-43.991l-0.41-1.577-0.41-1.556-0.154-0.625c-2.304-1.024-4.598-1.997-6.943-2.918l-153.61-61.522c-32.86-13.158-60.426-14.1-60.6-53.361l-25.426-133.755h921.6l-34.243 133.775z" />
<glyph unicode="&#xe651;" d="M472.238 434.452c-3.082 0-6.185 0.246-8.479 3.471 0.696 12.196 4.68 21.309 8.55 30.106 1.731 3.963 3.471 7.905 4.884 12.155l1.731 5.007 1.423-5.079c3.348-11.786 2.284-33.751-2.898-45.568l-5.212-0.092zM857.221 511.447l-1.546-1.444c-26.327-24.822-35.871-66.959-42.752-104.489 21.965 5.939 40.632 26.235 48.691 48.558 4.915 13.629 8.305 34.335-3.359 55.521l-1.034 1.853zM376.3 443.822c1.382-0.543 2.949-1.178 5.13-1.178l1.096 0.225 2.662 1.311c2.068 10.097 1.423 23.173-1.731 35.881-8.1-9.196-13.046-19.927-14.92-33.659l-0.246-1.864 4.116 0.215c1.536 0.010 2.632-0.399 3.891-0.932zM972.8 204.442c0-18.186-14.735-32.922-32.922-32.922h-855.757c-18.186 0-32.922 14.735-32.922 32.922v487.117c0 18.186 14.735 32.922 32.922 32.922h855.757c18.186 0 32.922-14.735 32.922-32.922v-487.117zM327.987 383.447c-9.134 25.17-15.053 53.699-20.736 81.633-7.363 35.891-14.94 72.335-27.812 100.782-1.526-0.143-3.041-1.556-4.495-1.556-4.547 0-8.509-1.075-12.462-0.44-3.758 0.655-7.526-3.226-11.971-3.226-0.41 0-0.86 0-1.27 0-1.157 0-2.202 4.516-2.703 4.844-20.521-27.761-27.576-65.239-36.854-103.24-5.13 9.001-9.83 18.237-14.49 27.689-8.233 16.609-16.742 33.669-26.388 47.34-2.703 0.225-5.335 0.246-7.854 0.246-11.049 0-21.074-1.987-30.495-4.731l-0.481-25.508c-1.034-43.796-1.915-81.613 9.124-117.32 2.048-0.338 4.137-0.512 6.205-0.512 13.23 0 24.934 6.461 30.013 9.052 0.809 11.203-0.584 19.937-2.017 29.225-0.768 4.751-1.546 9.544 0.973 15.77 7.67-9.953 14.418-20.879 21.135-31.785 4.28-6.912 8.561-13.793 11.837-19.732 2.212-0.225 4.301-0.317 6.298-0.317 5.171 0 9.738 0.645 14.295 1.26 4.741 0.635 9.431 1.239 14.797 1.239l3.041-1.106c6.083 13.496 6.41 33.352 6.728 52.572 0.287 17.633 0.604 35.84 8.438 49.408 8.55-39.404 20.204-77.681 35.553-116.961 5.396 0.737 11.377 2.591 16.906 4.301 4.116 1.28 7.844 2.488 10.803 2.488 1.505 0 2.816-0.666 3.881-1.413zM433.992 375.194c-2.949 5.345-7.199 7.834-13.251 7.834-4.628 0-9.902-1.311-14.981-2.703-5.202-1.403-10.537-2.744-15.35-2.744-1.331 0-2.57 0.328-3.799 0.584-5.786 1.096-10.465 4.721-13.865 9.759-6.144 9.144-7.649 24.115-2.14 42.363 8.878-2.406 20.050-2.765 32.276-2.765 1.034 0 2.017 0 3.011 0 3.133 0 5.99-1.004 7.854-1.761 6.011 24.422 2.775 57.713-2.048 76.861-3.727 0.778-7.045 2.14-10.353 3.277-5.796 1.997-11.223 3.942-18.647 3.942-1.28 0-2.611 0.061-3.932-0.092-23.521-3.154-39.516-36.147-43.162-67.144-3.379-28.611 2.785-62.956 30.147-73.513 5.632-2.171 12.636-3.256 20.787-3.256 16.271 0.010 35.144 4.567 47.452 9.359zM527.34 382.167c-1.485 4.905-5.734 7.619-12.063 9.585-5.366-8.325-13.722-12.943-23.603-12.943-10.496 0-20.92 5.335-27.177 13.947-5.98 8.223-7.444 18.483-2.161 29.952 8.479-1.731 16.773-3.308 24.504-3.308 6.42 0 12.196 1.024 17.060 1.577-1.505 18.79 0.676 31.969 2.99 45.916 1.925 11.653 3.922 23.675 4.342 38.226-10.711 8.1-22.108 12.237-34.816 13.363-31.365-23.982-45.926-60.733-44.554-112.067 4.291-22.702 34.202-36.741 59.484-36.741 15.411 0.010 28.344 5.018 35.994 12.493zM635.996 452.547c-3.891 3.123-7.199 6.789-10.506 10.516-6.257 7.004-12.165 13.619-21.78 16.2-1.997-0.041-2.386-1.495-2.611-5.929-0.205-3.564-0.492-9.052-5.939-9.052l-3.738-0.041 0.164 1.3c1.331 15.913 0.164 34.243-1.116 54.559-1.761 28.805-3.604 55.747 1.505 80.108-6.339 7.608-16.005 11.633-34.724 11.633-0.246 0-0.471 0-0.696 0-1.546 0-2.949 4.803-3.369 5.642-9.636-29.645-4.956-62.126-0.43-97.628 2.611-20.255 5.059-39.148 2.068-57.477-3.707 0-7.465 0.461-11.1 0.748-3.236 0.276-6.431 0.614-9.288 0.614-5.366 0-8.571-0.932-10.506-3.123-2.181-2.447-2.826-6.636-2.703-11.694 7.393-5.079 20.193-5.427 32.563-5.745l7.793-1.772c0.338-10.824 1.188-21.146 2.017-31.498 1.26-15.145 2.499-30.812 2.191-47.882 3.277 0.451 6.226 0.614 9.093 0.788 5.53 0.358 10.772 0.686 16.712 1.393-0.184 12.083-0.635 23.603-1.065 34.693-0.584 15.493-1.157 30.198 0.195 46.090 5.478 1.567 12.124 1.925 18.534 2.273 10.742 0.604 21.862 1.208 26.737 5.284zM750.254 471.788c-7.69 6.298-17.234 17.172-28.109 17.172-0.86 0-1.71 0-2.468 0-1.167 0-2.161-2.98-2.703-2.437l-0.266-11.356c-0.727-31.14-1.761-74.281-31.549-84.634-2.836 18.698-3.604 39.117-4.321 57.385-0.379 9.738-0.737 18.565-0.41 24.74-2.898 1.393-5.571 2.888-8.192 4.485-7.404 4.444-14.367 8.591-25.62 10.066-4.485-53.545 0.901-89.006 15.974-105.37 6.205-6.748 14.203-10.199 23.757-10.199 6.707 0 14.326 1.649 21.893 4.332l2.877 4.434c5.376 8.233 8.909 13.701 16.947 19.804 2.048 3.666 4.229 8.192 6.451 11.704 9.841 15.79 19.139 32.666 15.739 59.873zM894.054 522.199c-16.404 9.605-30.689 14.234-43.725 14.234-16.22 0-30.28-7.291-42.998-22.333-23.941-28.262-28.928-87.112-32.369-116.746-1.444-0.614-3.021-1.096-4.618-1.546-4.157-1.239-8.069-2.406-9.564-4.342 12.585-14.582 15.053-39.311 17.459-63.181 1.874-18.432 3.758-37.489 9.165-50.432 2.99-0.645 7.199-0.983 12.851-0.983 2.652 0 5.437 0.082 8.212 0.082 4.68 0 9.288-0.205 12.943-1.321-8.714 21.975-12.114 51.753-9.411 95.263 35.512 8.397 67.082 33.597 82.35 65.772 9.216 19.436 16.548 50.176-0.297 85.535z" />
<glyph unicode="&#xe652;" d="M889.221-12.8l-135.188 97.884-135.148-97.884 51.599 158.423-135.188 97.833h167.127l51.61 158.433 51.651-158.433h167.117l-135.188-97.833 51.61-158.423zM631.706 133.038c-28.488 20.593-197.888 143.278-197.888 143.278s209.449 0 244.603 0c10.885 33.423 75.612 231.895 75.612 231.895s64.686-198.472 75.551-231.895c17.101 0 75.356 0 130.652 0l-206.203 632.484-165.939-508.897h-536.893l539.628-392.335c17.275 52.931 35.512 109.138 40.878 125.471v0z" />
</font>
</defs>
</svg>
